<?xml version="1.0" standalone="no"?>
<!DOCTYPE svg PUBLIC "-//W3C//DTD SVG 1.1//EN" "http://www.w3.org/Graphics/SVG/1.1/DTD/svg11.dtd" >
<svg xmlns="http://www.w3.org/2000/svg" xmlns:xlink="http://www.w3.org/1999/xlink" version="1.1">
<metadata>
Created by FontForge 20190801 at Mon Aug 27 12:53:20 2018
 By root
Copyright (c) 2018 by Swiss Typefaces. All rights reserved. |DCNT
</metadata>
<defs>
<font id="EuclidCircularB-Regular" horiz-adv-x="0" >
  <font-face 
    font-family="Euclid Circular B"
    font-weight="400"
    font-stretch="normal"
    units-per-em="1000"
    panose-1="2 11 5 4 0 0 0 0 0 0"
    ascent="732"
    descent="-268"
    x-height="500"
    cap-height="710"
    bbox="-361 -269 1382 1000"
    underline-thickness="75"
    underline-position="-318"
    unicode-range="U+0020-FEFF"
  />
<missing-glyph horiz-adv-x="682" 
d="M91 0v710h500v-710h-500zM330 355l-220 327v-654zM351 355l221 -327v654zM557 691h-432l216 -321zM341 339l-216 -320h432z" />
    <glyph glyph-name="uni0407_uni0407" unicode="&#x407;&#x407;" horiz-adv-x="562" 
d="M94 0v710h93v-710h-93zM375 0v710h93v-710h-93zM25 785q-25 0 -42 17t-17 41t17 41.5t42 17.5q24 0 41 -17.5t17 -41.5t-17 -41t-41 -17zM280 785q-25 0 -42 17t-17 41t17 41.5t42 17.5q24 0 41 -17.5t17 -41.5t-17 -41t-41 -17zM535 785q-25 0 -42 17t-17 41t17 41.5
t42 17.5q24 0 41 -17.5t17 -41.5t-17 -41t-41 -17z" />
    <glyph glyph-name="uni0457_uni0457" unicode="&#x457;&#x457;" horiz-adv-x="497" 
d="M167 0h-86v500h86v-500zM416 0h-86v500h86v-500zM42 596q-26 0 -43.5 17.5t-17.5 43.5q0 25 17.5 42.5t43.5 17.5q25 0 42.5 -17.5t17.5 -42.5q0 -26 -17.5 -43.5t-42.5 -17.5zM248 596q-26 0 -43.5 17.5t-17.5 43.5q0 25 17.5 42.5t43.5 17.5q25 0 42.5 -17.5
t17.5 -42.5q0 -26 -17.5 -43.5t-42.5 -17.5zM454 596q-26 0 -43.5 17.5t-17.5 43.5q0 25 17.5 42.5t43.5 17.5q25 0 43 -17.5t18 -42.5q0 -26 -18 -43.5t-43 -17.5z" />
    <glyph glyph-name="uni0457_uni0458" unicode="&#x457;&#x458;" horiz-adv-x="497" 
d="M167 0h-86v500h86v-500zM42 596q-26 0 -43.5 17.5t-17.5 43.5q0 25 17.5 42.5t43.5 17.5q25 0 42.5 -17.5t17.5 -42.5q0 -26 -17.5 -43.5t-42.5 -17.5zM248 596q-26 0 -43.5 17.5t-17.5 43.5q0 25 17.5 42.5t43.5 17.5q25 0 42.5 -17.5t17.5 -42.5q0 -26 -17.5 -43.5
t-42.5 -17.5zM454 596q-26 0 -43.5 17.5t-17.5 43.5q0 25 17.5 42.5t43.5 17.5q25 0 43 -17.5t18 -42.5q0 -26 -18 -43.5t-43 -17.5zM416 500v-566q0 -75 -42.5 -114t-109.5 -39q-24 0 -40 3v77q16 -2 28 -2q78 0 78 85v556h86z" />
    <glyph glyph-name="_515" unicode="ff" horiz-adv-x="717" 
d="M123 0v421h-106v79h106v103q0 75 42 114t111 39q41 0 78 -13v-76q-21 10 -62 10q-43 0 -63 -19t-20 -66v-92h123v-79h-123v-421h-86zM473 0v421h-86v79h86v103q0 75 42 114t111 39q41 0 78 -13v-76q-23 10 -63 10q-43 0 -62.5 -19t-19.5 -66v-92h145v-79h-145v-421h-86z
" />
    <glyph glyph-name="f_i" unicode="fi" horiz-adv-x="615" 
d="M123 0v421h-106v79h106v101q0 75 42 115t111 40q41 0 78 -13v-76q-23 10 -62 10q-43 0 -63 -19t-20 -66v-92h145v-79h-145v-421h-86zM492 634q-26 0 -44 17.5t-18 43.5q0 25 18 43t44 18t43 -18t17 -43q0 -26 -17 -43.5t-43 -17.5zM448 0v500h86v-500h-86z" />
    <glyph glyph-name="_519" unicode="ffi" horiz-adv-x="966" 
d="M842 634q-26 0 -44 17.5t-18 43.5q0 25 18 43t44 18t43 -18t17 -43q0 -26 -17 -43.5t-43 -17.5zM798 0v500h86v-500h-86zM123 0v421h-106v79h106v103q0 75 42 114t111 39q41 0 78 -13v-76q-21 10 -62 10q-43 0 -63 -19t-20 -66v-92h123v-79h-123v-421h-86zM473 0v421h-86
v79h86v103q0 75 42 114t111 39q41 0 78 -13v-76q-23 10 -63 10q-43 0 -62.5 -19t-19.5 -66v-92h145v-79h-145v-421h-86z" />
    <glyph glyph-name="f_l" unicode="fl" horiz-adv-x="615" 
d="M123 0v421h-106v79h106v101q0 75 42 115t111 40q41 0 78 -13v-76q-23 10 -62 10q-43 0 -63 -19t-20 -66v-92h145v-79h-145v-421h-86zM448 0v750h86v-750h-86z" />
    <glyph glyph-name="_523" unicode="ffl" horiz-adv-x="966" 
d="M798 0v750h86v-750h-86zM123 0v421h-106v79h106v103q0 75 42 114t111 39q41 0 78 -13v-76q-21 10 -62 10q-43 0 -63 -19t-20 -66v-92h123v-79h-123v-421h-86zM473 0v421h-86v79h86v103q0 75 42 114t111 39q41 0 78 -13v-76q-23 10 -63 10q-43 0 -62.5 -19t-19.5 -66v-92
h145v-79h-145v-421h-86z" />
    <glyph glyph-name="f_t" unicode="ft" horiz-adv-x="743" 
d="M123 0v421h-106v79h106v103q0 75 42 114t111 39q41 0 78 -13v-76q-23 10 -62 10q-43 0 -63 -19t-20 -66v-92h128v-79h-128v-421h-86zM637 -5q-69 0 -111.5 39t-42.5 114v273h-90v79h90v139h86v-139h145v-79h-145v-262q0 -47 20 -66t63 -19q39 0 62 10v-77
q-39 -12 -77 -12z" />
    <glyph glyph-name="t_t" unicode="tt" horiz-adv-x="748" 
d="M641 -5q-69 0 -111 39t-42 114v273h-94v79h94v139h86v-139h145v-79h-145v-262q0 -47 20 -66t63 -19q39 0 62 10v-77q-39 -12 -78 -12zM275 -5q-69 0 -111 39t-42 114v273h-106v79h106v139h86v-139h130v-79h-130v-262q0 -47 20 -66t63 -19q38 0 61 10v-77q-36 -12 -77 -12
z" />
    <glyph glyph-name=".notdef" horiz-adv-x="682" 
d="M91 0v710h500v-710h-500zM330 355l-220 327v-654zM351 355l221 -327v654zM557 691h-432l216 -321zM341 339l-216 -320h432z" />
    <glyph glyph-name=".null" 
 />
    <glyph glyph-name="nonmarkingreturn" horiz-adv-x="333" 
 />
    <glyph glyph-name="space" unicode=" " horiz-adv-x="241" 
 />
    <glyph glyph-name="exclam" unicode="!" horiz-adv-x="271" 
d="M109 222l-17 204v284h87v-284l-17 -204h-53zM135 -8q-31 0 -52.5 22t-21.5 53q0 30 22 52.5t52 22.5t52 -22.5t22 -52.5q0 -31 -21.5 -53t-52.5 -22z" />
    <glyph glyph-name="quotedbl" unicode="&#x22;" horiz-adv-x="413" 
d="M66 463v247h78v-247h-78zM268 463v247h78v-247h-78z" />
    <glyph glyph-name="numbersign" unicode="#" horiz-adv-x="737" 
d="M347 0l62 200h-181l-61 -200h-80l62 200h-116v73h139l54 171h-120v73h143l60 193h79l-60 -193h180l61 193h78l-60 -193h116v-73h-139l-53 -171h120v-73h-144l-61 -200h-79zM305 444l-53 -171h180l53 171h-180z" />
    <glyph glyph-name="dollar" unicode="$" horiz-adv-x="522" 
d="M237 -88v80q-82 9 -136 62.5t-56 145.5h86q13 -106 106 -124v249l-34 13q-154 62 -154 202q0 80 53 127.5t135 53.5v77h54v-79q72 -11 121.5 -57.5t49.5 -120.5h-86q-13 77 -85 94v-234l25 -10q81 -33 121.5 -83t40.5 -125q0 -88 -51.5 -137t-135.5 -55v-79h-54zM392 177
q0 46 -25 75t-76 51v-229q43 5 72 33.5t29 69.5zM135 540q0 -41 23.5 -67.5t78.5 -50.5v216q-47 -5 -74.5 -32t-27.5 -66z" />
    <glyph glyph-name="percent" unicode="%" horiz-adv-x="991" 
d="M317 0h-93l450 710h93zM762 -8q-82 0 -139.5 58t-57.5 139q0 82 57.5 139.5t139.5 57.5q81 0 139 -57.5t58 -139.5q0 -81 -58 -139t-139 -58zM762 70q48 0 83 35.5t35 83.5t-35 83.5t-83 35.5q-50 0 -84 -35t-34 -84t34 -84t84 -35zM229 324q-82 0 -139.5 58t-57.5 139
q0 82 57.5 139.5t139.5 57.5q81 0 139 -57.5t58 -139.5q0 -81 -58 -139t-139 -58zM229 402q48 0 83 35.5t35 83.5t-35 83.5t-83 35.5q-50 0 -84 -35t-34 -84t34 -84t84 -35z" />
    <glyph glyph-name="ampersand" unicode="&#x26;" horiz-adv-x="745" 
d="M284 -10q-97 0 -157.5 57.5t-60.5 146.5q0 70 41 116.5t110 86.5l5 3q-86 80 -86 161q0 70 52 115.5t129 45.5t126 -47.5t49 -117.5q0 -105 -137 -174l151 -148l84 107h100l-128 -162l185 -180h-113l-122 118q-57 -67 -109.5 -97.5t-118.5 -30.5zM287 68q47 0 85 24.5
t84 79.5l-177 172l-13 -7q-57 -30 -85 -63t-28 -81q0 -57 39.5 -91t94.5 -34zM219 559q0 -23 12 -45t25 -36t43 -42l5 3q52 27 77.5 51t25.5 61q0 42 -25 69t-67 27q-40 0 -68 -24t-28 -64z" />
    <glyph glyph-name="quotesingle" unicode="'" horiz-adv-x="211" 
d="M66 463v247h78v-247h-78z" />
    <glyph glyph-name="parenleft" unicode="(" horiz-adv-x="275" 
d="M245 -160h-70q-128 233 -128 480t128 480h70q-121 -235 -121 -480t121 -480z" />
    <glyph glyph-name="parenright" unicode=")" horiz-adv-x="274" 
d="M99 -160h-70q121 235 121 480t-121 480h70q128 -233 128 -480t-128 -480z" />
    <glyph glyph-name="asterisk" unicode="*" horiz-adv-x="440" 
d="M142 372l-54 39l77 107l-126 42l19 64l128 -42v128h67v-128l127 41l21 -63l-127 -42l79 -107l-54 -39l-79 107z" />
    <glyph glyph-name="plus" unicode="+" horiz-adv-x="500" 
d="M38 251v77h173v172h78v-172h172v-77h-172v-172h-78v172h-173z" />
    <glyph glyph-name="comma" unicode="," horiz-adv-x="256" 
d="M188 22l-103 -165h-57l67 143q-41 20 -41 67q0 30 22 52.5t52 22.5t52 -22.5t22 -52.5q0 -22 -14 -45z" />
    <glyph glyph-name="hyphen" unicode="-" horiz-adv-x="386" 
d="M65 237v86h255v-86h-255z" />
    <glyph glyph-name="period" unicode="." horiz-adv-x="252" 
d="M126 -8q-31 0 -52.5 22t-21.5 53q0 30 22 52.5t52 22.5t52 -22.5t22 -52.5q0 -31 -21.5 -53t-52.5 -22z" />
    <glyph glyph-name="slash" unicode="/" horiz-adv-x="509" 
d="M21 -110l386 820h81l-386 -820h-81z" />
    <glyph glyph-name="zero" unicode="0" horiz-adv-x="623" 
d="M311 -10q-111 0 -181 74.5t-70 192.5v198q0 118 70.5 192.5t180.5 74.5t181 -75t71 -192v-198q0 -118 -71 -192.5t-181 -74.5zM311 74q74 0 120 49t46 134v198q0 85 -46 134t-120 49q-73 0 -119 -49t-46 -134v-198q0 -85 46 -134t119 -49z" />
    <glyph glyph-name="one" unicode="1" horiz-adv-x="325" 
d="M145 0v625h-137l70 85h153v-710h-86z" />
    <glyph glyph-name="two" unicode="2" horiz-adv-x="558" 
d="M509 83v-83h-460v34q0 37 11.5 70.5t25.5 56.5t44 51.5t47 42t57 42t53 37.5q71 52 98.5 87.5t27.5 93.5q0 56 -36 89.5t-94 33.5q-61 0 -104 -37t-43 -103h-88q0 100 66.5 162t167.5 62q94 0 156.5 -54t62.5 -154q0 -76 -37 -129.5t-127 -118.5q-17 -12 -48 -33.5
t-48 -34.5t-37.5 -31.5t-32 -39t-16.5 -44.5h354z" />
    <glyph glyph-name="three" unicode="3" horiz-adv-x="580" 
d="M297 -10q-106 0 -179.5 64.5t-73.5 161.5h87q4 -63 51 -102.5t115 -39.5q62 0 103 34t41 94q0 64 -41.5 96t-113.5 32h-53v79h57q57 0 93.5 32t37.5 83q0 50 -36.5 82t-91.5 32q-63 0 -106 -37t-43 -103h-88q0 102 68 163t169 61q93 0 154.5 -53.5t61.5 -141.5
q-1 -51 -27.5 -92t-68.5 -63q54 -22 85 -67.5t31 -105.5q0 -93 -65 -151t-167 -58z" />
    <glyph glyph-name="four" unicode="4" horiz-adv-x="617" 
d="M395 0v193h-378v69l389 448h75v-436h98v-81h-98v-193h-86zM129 274h266v306z" />
    <glyph glyph-name="five" unicode="5" horiz-adv-x="555" 
d="M274 -10q-96 0 -166 60t-72 142h88q12 -52 53 -85t97 -33q65 0 109 44t44 108q0 65 -42 109t-107 44q-89 0 -134 -72l-82 24l73 379h332v-84h-263l-39 -203q52 37 124 37q99 0 162.5 -69.5t63.5 -175.5q0 -94 -69 -159.5t-172 -65.5z" />
    <glyph glyph-name="six" unicode="6" horiz-adv-x="559" 
d="M277 -10q-103 0 -172 68t-69 166q0 52 20.5 93.5t59.5 87.5l259 305h109l-217 -257q18 2 28 2q89 0 155.5 -68t66.5 -161q0 -99 -68.5 -167.5t-171.5 -68.5zM277 73q64 0 108 45t44 108t-44 108t-108 45q-65 0 -109 -44.5t-44 -108.5t44 -108.5t109 -44.5z" />
    <glyph glyph-name="seven" unicode="7" horiz-adv-x="509" 
d="M157 0h-96l331 626h-363v84h466v-72z" />
    <glyph glyph-name="eight" unicode="8" horiz-adv-x="571" 
d="M286 -10q-104 0 -171.5 63t-67.5 160q0 130 112 185q-73 52 -73 141q0 80 56.5 131.5t143.5 51.5q88 0 143.5 -51.5t55.5 -131.5q0 -90 -72 -141q111 -55 111 -185q0 -97 -66.5 -160t-171.5 -63zM286 72q70 0 110.5 40t40.5 101q0 62 -40.5 102t-110.5 40
q-68 0 -110 -40.5t-42 -101.5q0 -60 42 -100.5t110 -40.5zM286 432q52 0 83 30.5t31 74.5q0 46 -30.5 75t-83.5 29q-51 0 -83 -29.5t-32 -74.5q0 -43 32 -74t83 -31z" />
    <glyph glyph-name="nine" unicode="9" horiz-adv-x="559" 
d="M74 0l219 258q-11 -1 -28 -1q-89 0 -155.5 68t-66.5 160q0 100 68.5 168.5t171.5 68.5t172 -68t69 -166q0 -52 -20.5 -93.5t-59.5 -87.5l-260 -307h-110zM283 333q65 0 109 44.5t44 108.5t-44 108.5t-109 44.5t-108.5 -44.5t-43.5 -108.5t43.5 -108.5t108.5 -44.5z" />
    <glyph glyph-name="colon" unicode=":" horiz-adv-x="274" 
d="M137 362q-31 0 -52.5 22t-21.5 53q0 30 22 52.5t52 22.5t52 -22.5t22 -52.5q0 -31 -21.5 -53t-52.5 -22zM137 -8q-31 0 -52.5 22t-21.5 53q0 30 22 52.5t52 22.5t52 -22.5t22 -52.5q0 -31 -21.5 -53t-52.5 -22z" />
    <glyph glyph-name="semicolon" unicode=";" horiz-adv-x="285" 
d="M204 22l-103 -165h-57l67 143q-41 20 -41 67q0 30 22 52.5t52 22.5t52 -22.5t22 -52.5q0 -22 -14 -45zM144 362q-31 0 -52.5 22t-21.5 53q0 30 22 52.5t52 22.5t52 -22.5t22 -52.5q0 -31 -21.5 -53t-52.5 -22z" />
    <glyph glyph-name="less" unicode="&#x3c;" horiz-adv-x="427" 
d="M394 543l-253 -253l253 -253h-109l-253 253l253 253h109z" />
    <glyph glyph-name="equal" unicode="=" horiz-adv-x="560" 
d="M68 143v76h424v-76h-424zM68 360v77h424v-77h-424z" />
    <glyph glyph-name="greater" unicode="&#x3e;" horiz-adv-x="427" 
d="M286 290l-253 253h109l253 -253l-253 -253h-109z" />
    <glyph glyph-name="question" unicode="?" horiz-adv-x="506" 
d="M190 236v20q0 64 91 130q49 36 71 63t22 67q0 52 -33.5 87t-86.5 35q-60 0 -97.5 -36.5t-37.5 -96.5h-86q0 91 63 154t158 63q91 0 148.5 -60t57.5 -144q0 -60 -29 -102t-76 -78q-4 -3 -15.5 -12t-16.5 -13t-14.5 -12t-13.5 -13.5t-9.5 -13t-7.5 -15t-2 -15.5v-8h-86z
M232 -8q-31 0 -52.5 22t-21.5 53q0 30 22 52.5t52 22.5t52 -22.5t22 -52.5q0 -31 -21.5 -53t-52.5 -22z" />
    <glyph glyph-name="at" unicode="@" horiz-adv-x="812" 
d="M396 -10q-158 0 -253.5 99t-95.5 248q0 167 115.5 276t273.5 109q147 0 243.5 -87t96.5 -229q0 -121 -51.5 -184t-126.5 -63q-80 0 -105 60q-19 -26 -55 -42.5t-73 -16.5q-66 0 -110 47t-44 126q0 93 59 155.5t143 62.5q43 0 74 -21t41 -50l12 62h76l-50 -238
q-16 -79 39 -79q47 0 74 46t27 137q0 112 -76.5 180.5t-194.5 68.5q-130 0 -223.5 -89t-93.5 -231q0 -125 75.5 -203.5t202.5 -78.5q105 0 184 39v-71q-85 -33 -184 -33zM376 228q47 0 82.5 32.5t44.5 81.5q10 60 -14.5 100.5t-74.5 40.5q-47 0 -82 -32.5t-44 -81.5
q-10 -60 15 -100.5t73 -40.5z" />
    <glyph glyph-name="A" unicode="A" horiz-adv-x="718" 
d="M6 0l314 710h77l315 -710h-97l-92 207h-331l-90 -207h-96zM357 584l-128 -293h257z" />
    <glyph glyph-name="B" unicode="B" horiz-adv-x="629" 
d="M94 0v710h233q96 0 154 -55t58 -133q0 -98 -76 -145q123 -45 123 -170q0 -90 -65.5 -148.5t-172.5 -58.5h-254zM187 84h165q70 0 106.5 32.5t36.5 87.5q0 54 -36.5 87.5t-105.5 33.5h-166v-241zM187 405h140q56 0 88.5 30.5t32.5 79.5q0 47 -33 79t-88 32h-140v-221z" />
    <glyph glyph-name="C" unicode="C" horiz-adv-x="755" 
d="M412 -12q-153 0 -260 106.5t-107 260.5t107 260.5t260 106.5q101 0 183 -46t131 -126l-78 -47q-38 61 -99 96t-137 35q-116 0 -194.5 -81t-78.5 -198t78.5 -198t194.5 -81q76 0 137 35t99 96l78 -47q-49 -80 -131 -126t-183 -46z" />
    <glyph glyph-name="D" unicode="D" horiz-adv-x="721" 
d="M94 0v710h204q163 0 270.5 -101t107.5 -254t-107.5 -254t-270.5 -101h-204zM187 87h111q127 0 205.5 75.5t78.5 192.5t-78.5 192.5t-205.5 75.5h-111v-536z" />
    <glyph glyph-name="E" unicode="E" horiz-adv-x="557" 
d="M94 0v710h414v-88h-321v-215h261v-88h-261v-231h321v-88h-414z" />
    <glyph glyph-name="F" unicode="F" horiz-adv-x="531" 
d="M94 0v710h413v-88h-320v-215h253v-88h-253v-319h-93z" />
    <glyph glyph-name="G" unicode="G" horiz-adv-x="765" 
d="M428 -12q-167 0 -274.5 105t-107.5 262q0 155 106 261t264 106q163 0 267 -99l-62 -67q-85 78 -205 78t-198.5 -80.5t-78.5 -198.5q0 -120 79.5 -199.5t209.5 -79.5q122 0 189 53v190h-201v87h291v-318q-47 -49 -121 -74.5t-158 -25.5z" />
    <glyph glyph-name="H" unicode="H" horiz-adv-x="763" 
d="M94 0v710h93v-303h389v303h93v-710h-93v320h-389v-320h-93z" />
    <glyph glyph-name="I" unicode="I" horiz-adv-x="281" 
d="M94 0v710h93v-710h-93z" />
    <glyph glyph-name="J" unicode="J" horiz-adv-x="529" 
d="M233 -12q-91 0 -151 53.5t-60 148.5h92q0 -54 34.5 -85t83.5 -31q51 0 84 32t33 100v504h92v-514q0 -105 -59 -156.5t-149 -51.5z" />
    <glyph glyph-name="K" unicode="K" horiz-adv-x="671" 
d="M563 0l-377 338v-338h-92v710h92v-308l310 308h121l-338 -338l415 -372h-131z" />
    <glyph glyph-name="L" unicode="L" horiz-adv-x="548" 
d="M94 0v710h93v-622h343v-88h-436z" />
    <glyph glyph-name="M" unicode="M" horiz-adv-x="886" 
d="M94 710h85l263 -354l265 354h84v-710h-92v552l-256 -344l-256 344v-552h-93v710z" />
    <glyph glyph-name="N" unicode="N" horiz-adv-x="794" 
d="M699 0h-80l-432 553v-553h-93v710h81l432 -553v553h92v-710z" />
    <glyph glyph-name="O" unicode="O" horiz-adv-x="825" 
d="M412 76q117 0 195.5 81t78.5 198t-78.5 198t-195.5 81q-116 0 -194.5 -81t-78.5 -198t78.5 -198t194.5 -81zM412 -12q-153 0 -260 106.5t-107 260.5t107 260.5t260 106.5q154 0 260.5 -106.5t106.5 -260.5t-106.5 -260.5t-260.5 -106.5z" />
    <glyph glyph-name="P" unicode="P" horiz-adv-x="586" 
d="M555 484q0 -98 -67.5 -161.5t-176.5 -63.5h-124v-259h-93v710h217q109 0 176.5 -64t67.5 -162zM463 484q0 61 -40.5 100t-111.5 39h-124v-278h124q71 0 111.5 39t40.5 100z" />
    <glyph glyph-name="Q" unicode="Q" horiz-adv-x="839" 
d="M412 -12q-153 0 -260 106.5t-107 260.5t107 260.5t260 106.5q154 0 260.5 -106.5t106.5 -260.5q0 -131 -81 -233l132 -122h-127l-68 62q-96 -74 -223 -74zM412 76q90 0 157 48l-113 105l57 64l117 -109q56 75 56 171q0 117 -78.5 198t-195.5 81q-116 0 -194.5 -81
t-78.5 -198t78.5 -198t194.5 -81z" />
    <glyph glyph-name="R" unicode="R" horiz-adv-x="635" 
d="M94 0v710h242q98 0 155 -53.5t57 -142.5q0 -78 -46.5 -128t-129.5 -62l274 -324h-117l-273 323h-69v-323h-93zM187 406h138q62 0 96 27.5t34 80.5t-34 81.5t-96 28.5h-138v-218z" />
    <glyph glyph-name="S" unicode="S" horiz-adv-x="554" 
d="M285 -12q-85 0 -152.5 36t-96.5 92l75 56q63 -97 176 -97q57 0 94 28.5t37 77.5q0 82 -102 120l-94 36q-84 31 -122.5 77.5t-38.5 118.5q0 86 62.5 137.5t159.5 51.5q65 0 119 -26.5t88 -70.5l-68 -60q-59 70 -141 70q-54 0 -91 -27.5t-37 -70.5t25 -68t82 -46l86 -33
q82 -31 123.5 -80t41.5 -125q0 -89 -63.5 -143t-162.5 -54z" />
    <glyph glyph-name="T" unicode="T" horiz-adv-x="567" 
d="M238 0v622h-221v88h533v-88h-221v-622h-91z" />
    <glyph glyph-name="U" unicode="U" horiz-adv-x="726" 
d="M363 -12q-124 0 -201 78.5t-77 209.5v434h93v-436q0 -95 50 -146.5t135 -51.5t135 51.5t50 146.5v436h93v-434q0 -131 -77 -209.5t-201 -78.5z" />
    <glyph glyph-name="V" unicode="V" horiz-adv-x="701" 
d="M311 0l-303 710h103l239 -565l240 565h101l-302 -710h-78z" />
    <glyph glyph-name="W" unicode="W" horiz-adv-x="947" 
d="M647 0l-174 482l-173 -482h-83l-194 710h97l148 -554l205 566l205 -566l149 554h97l-194 -710h-83z" />
    <glyph glyph-name="X" unicode="X" horiz-adv-x="670" 
d="M118 0h-114l274 359l-263 351h111l209 -277l209 277h111l-262 -351l273 -359h-113l-218 284z" />
    <glyph glyph-name="Y" unicode="Y" horiz-adv-x="674" 
d="M291 0v301l-276 409h111l211 -316l212 316h111l-277 -410v-300h-92z" />
    <glyph glyph-name="Z" unicode="Z" horiz-adv-x="587" 
d="M34 0v62l385 560h-374v88h497v-62l-385 -560h395v-88h-518z" />
    <glyph glyph-name="bracketleft" unicode="[" horiz-adv-x="305" 
d="M92 -160v960h187v-72h-109v-816h109v-72h-187z" />
    <glyph glyph-name="backslash" unicode="\" horiz-adv-x="509" 
d="M102 710l386 -820h-81l-386 820h81z" />
    <glyph glyph-name="bracketright" unicode="]" horiz-adv-x="305" 
d="M213 800v-960h-187v72h109v816h-109v72h187z" />
    <glyph glyph-name="asciicircum" unicode="^" horiz-adv-x="407" 
d="M124 500h-72l126 210h52l126 -210h-73l-80 132z" />
    <glyph glyph-name="underscore" unicode="_" horiz-adv-x="532" 
d="M54 -73v73h424v-73h-424z" />
    <glyph glyph-name="grave" unicode="`" 
d="M32 560l-134 190h110l94 -190h-70z" />
    <glyph glyph-name="a" unicode="a" horiz-adv-x="630" 
d="M287 -10q-104 0 -174.5 76t-70.5 184t70.5 184t174.5 76q55 0 102.5 -24.5t73.5 -62.5v77h86v-500h-86v77q-26 -38 -73.5 -62.5t-102.5 -24.5zM300 69q74 0 122 52t48 129t-48 129t-122 52q-75 0 -123 -52t-48 -129t48 -129t123 -52z" />
    <glyph glyph-name="b" unicode="b" horiz-adv-x="630" 
d="M343 -10q-55 0 -102.5 24.5t-73.5 62.5v-77h-86v750h86v-327q26 38 73.5 62.5t102.5 24.5q104 0 174.5 -76t70.5 -184t-70.5 -184t-174.5 -76zM330 69q74 0 122 52t48 129t-48 129t-122 52t-122 -52t-48 -129t48 -129t122 -52z" />
    <glyph glyph-name="c" unicode="c" horiz-adv-x="565" 
d="M304 -10q-113 0 -187.5 75t-74.5 185t74.5 185t187.5 75q76 0 136.5 -36t94.5 -98l-75 -42q-22 44 -62.5 70t-93.5 26q-77 0 -126 -52t-49 -128t49 -128t126 -52q53 0 93.5 26t62.5 70l75 -42q-34 -62 -94.5 -98t-136.5 -36z" />
    <glyph glyph-name="d" unicode="d" horiz-adv-x="630" 
d="M287 -10q-104 0 -174.5 76t-70.5 184t70.5 184t174.5 76q55 0 102.5 -24.5t73.5 -62.5v327h86v-750h-86v77q-26 -38 -73.5 -62.5t-102.5 -24.5zM300 69q74 0 122 52t48 129t-48 129t-122 52q-75 0 -123 -52t-48 -129t48 -129t123 -52z" />
    <glyph glyph-name="e" unicode="e" horiz-adv-x="581" 
d="M301 -10q-115 0 -187 74t-72 186q0 111 73 185.5t187 74.5q101 0 169.5 -67.5t68.5 -183.5q0 -15 -1 -26h-410q2 -70 50.5 -117t122.5 -47q105 0 156 87l68 -47q-73 -119 -225 -119zM135 303h317q-10 60 -52.5 95.5t-100.5 35.5q-59 0 -105.5 -35.5t-58.5 -95.5z" />
    <glyph glyph-name="f" unicode="f" horiz-adv-x="367" 
d="M123 0v421h-106v79h106v101q0 75 42 115t111 40q41 0 78 -13v-76q-23 10 -62 10q-43 0 -63 -19t-20 -66v-92h145v-79h-145v-421h-86z" />
    <glyph glyph-name="g" unicode="g" horiz-adv-x="628" 
d="M299 81q75 0 122 49.5t47 125.5t-47.5 125.5t-121.5 49.5t-121.5 -49.5t-47.5 -125.5t47 -125.5t122 -49.5zM294 -219q-77 0 -139 28.5t-96 73.5l60 60q66 -84 175 -84q70 0 118.5 44t48.5 129v57q-27 -40 -73 -64t-101 -24q-105 0 -175 73.5t-70 181.5q0 107 70.5 180.5
t174.5 73.5q55 0 101 -24t73 -63v77h86v-471q0 -121 -70.5 -184.5t-182.5 -63.5z" />
    <glyph glyph-name="h" unicode="h" horiz-adv-x="589" 
d="M167 0h-86v750h86v-327q51 87 159 87q85 0 137 -55t52 -147v-308h-85v295q0 63 -32 99.5t-86 36.5q-62 0 -103.5 -49t-41.5 -134v-248z" />
    <glyph glyph-name="i" unicode="i" horiz-adv-x="249" 
d="M125 634q-26 0 -44 17.5t-18 43.5q0 25 18 43t44 18t43 -18t17 -43q0 -26 -17 -43.5t-43 -17.5zM81 0v500h86v-500h-86z" />
    <glyph glyph-name="j" unicode="j" horiz-adv-x="257" 
d="M175 500v-566q0 -75 -42 -114t-109 -39q-23 0 -41 3v77q16 -2 29 -2q77 0 77 85v556h86zM133 634q-26 0 -44 17.5t-18 43.5q0 25 18 43t44 18t43 -18t17 -43q0 -26 -17 -43.5t-43 -17.5z" />
    <glyph glyph-name="k" unicode="k" horiz-adv-x="539" 
d="M438 0l-271 250v-250h-86v750h86v-445l218 195h114l-246 -221l301 -279h-116z" />
    <glyph glyph-name="l" unicode="l" horiz-adv-x="249" 
d="M81 0v750h86v-750h-86z" />
    <glyph glyph-name="m" unicode="m" horiz-adv-x="885" 
d="M725 0v294q0 62 -25.5 99.5t-73.5 37.5q-60 0 -97.5 -47t-39.5 -128v-256h-86v294q0 63 -25.5 100t-72.5 37q-62 0 -100 -49.5t-38 -133.5v-248h-86v500h86v-77q48 87 151 87q114 0 154 -107q20 49 64 78t100 29q81 0 128 -55t47 -148v-307h-86z" />
    <glyph glyph-name="n" unicode="n" horiz-adv-x="589" 
d="M81 0v500h86v-77q51 87 159 87q85 0 137 -55t52 -147v-308h-85v295q0 63 -32 99.5t-86 36.5q-62 0 -103.5 -49t-41.5 -134v-248h-86z" />
    <glyph glyph-name="o" unicode="o" horiz-adv-x="606" 
d="M303 -10q-113 0 -187.5 75.5t-74.5 184.5t74.5 184.5t187.5 75.5q112 0 186.5 -75.5t74.5 -184.5t-74.5 -184.5t-186.5 -75.5zM303 70q77 0 125 52t48 128t-48 128t-125 52t-125.5 -52t-48.5 -128t48.5 -128t125.5 -52z" />
    <glyph glyph-name="p" unicode="p" horiz-adv-x="631" 
d="M167 -209h-86v709h86v-77q26 38 73.5 62.5t102.5 24.5q104 0 174.5 -76t70.5 -184t-70.5 -184t-174.5 -76q-55 0 -102.5 24.5t-73.5 62.5v-286zM330 69q74 0 122 52t48 129t-48 129t-122 52t-122 -52t-48 -129t48 -129t122 -52z" />
    <glyph glyph-name="q" unicode="q" horiz-adv-x="630" 
d="M549 -209h-86v286q-26 -38 -73.5 -62.5t-102.5 -24.5q-104 0 -174.5 76t-70.5 184t70.5 184t174.5 76q55 0 102.5 -24.5t73.5 -62.5v77h86v-709zM300 69q74 0 122 52t48 129t-48 129t-122 52q-75 0 -123 -52t-48 -129t48 -129t123 -52z" />
    <glyph glyph-name="r" unicode="r" horiz-adv-x="366" 
d="M81 0v500h86v-97q14 46 54.5 74t85.5 28q22 0 39 -4v-89q-18 8 -47 8q-52 0 -92 -45t-40 -127v-248h-86z" />
    <glyph glyph-name="s" unicode="s" horiz-adv-x="450" 
d="M232 -10q-69 0 -121 29.5t-75 86.5l70 39q14 -37 49 -58t78 -21q37 0 62 18t25 49q0 27 -19.5 45t-67.5 33l-50 16q-125 36 -125 146q0 62 49.5 99.5t122.5 37.5q114 0 165 -87l-64 -44q-41 57 -104 57q-34 0 -58.5 -16.5t-24.5 -43.5q0 -25 15.5 -42.5t55.5 -29.5
l55 -17q136 -42 136 -147q0 -70 -48.5 -110t-125.5 -40z" />
    <glyph glyph-name="t" unicode="t" horiz-adv-x="381" 
d="M275 -5q-69 0 -111 39t-42 114v273h-106v79h106v139h86v-139h144v-79h-144v-262q0 -47 20 -66t63 -19q38 0 61 10v-77q-36 -12 -77 -12z" />
    <glyph glyph-name="u" unicode="u" horiz-adv-x="579" 
d="M258 -10q-82 0 -133 55.5t-51 147.5v307h86v-294q0 -63 30.5 -100t82.5 -37q60 0 99.5 49.5t39.5 133.5v248h86v-500h-86v77q-49 -87 -154 -87z" />
    <glyph glyph-name="v" unicode="v" horiz-adv-x="546" 
d="M237 0l-231 500h96l171 -379l171 379h96l-231 -500h-72z" />
    <glyph glyph-name="w" unicode="w" horiz-adv-x="763" 
d="M505 0l-124 359l-123 -359h-76l-170 500h90l121 -365l125 365h66l125 -365l121 365h91l-170 -500h-76z" />
    <glyph glyph-name="x" unicode="x" horiz-adv-x="530" 
d="M417 0l-152 189l-152 -189h-107l205 253l-188 247h104l138 -181l137 181h105l-189 -247l205 -253h-106z" />
    <glyph glyph-name="y" unicode="y" horiz-adv-x="547" 
d="M214 -209h-96l109 235l-219 474h95l172 -380l171 380h96z" />
    <glyph glyph-name="z" unicode="z" horiz-adv-x="484" 
d="M40 0v68l286 353h-282v79h393v-69l-286 -352h295v-79h-406z" />
    <glyph glyph-name="braceleft" unicode="{" horiz-adv-x="316" 
d="M290 -160h-60q-69 0 -98 35t-29 108v230q0 37 -11.5 54t-46.5 17h-15v72h15q35 0 46.5 16t11.5 54v231q0 73 28.5 108t97.5 35h61v-72h-48q-37 0 -49 -16.5t-12 -56.5v-225q0 -48 -11.5 -72t-42.5 -38q30 -14 42 -38.5t12 -72.5v-224q0 -41 12 -57t49 -16h48v-72z" />
    <glyph glyph-name="bar" unicode="|" horiz-adv-x="262" 
d="M92 -110v820h79v-820h-79z" />
    <glyph glyph-name="braceright" unicode="}" horiz-adv-x="316" 
d="M86 -160h-60v72h48q37 0 49 16t12 57v224q0 48 12 72.5t42 38.5q-31 14 -42.5 38t-11.5 72v225q0 40 -12 56.5t-49 16.5h-48v72h61q69 0 97.5 -35t28.5 -108v-231q0 -38 11.5 -54t46.5 -16h15v-72h-15q-35 0 -46.5 -17t-11.5 -54v-230q0 -73 -29 -108t-98 -35z" />
    <glyph glyph-name="asciitilde" unicode="~" horiz-adv-x="412" 
d="M69 230l55 119h46l81 -59l27 59h67l-55 -119h-46l-82 58l-26 -58h-67z" />
    <glyph glyph-name="uni00A0" unicode="&#xa0;" horiz-adv-x="241" 
 />
    <glyph glyph-name="exclamdown" unicode="&#xa1;" horiz-adv-x="258" 
d="M156 280l16 -204v-285h-86v285l16 204h54zM129 362q-31 0 -52.5 22t-21.5 53q0 30 22 52.5t52 22.5t52 -22.5t22 -52.5q0 -31 -21.5 -53t-52.5 -22z" />
    <glyph glyph-name="cent" unicode="&#xa2;" horiz-adv-x="592" 
d="M277 -88v80q-102 10 -167.5 83.5t-65.5 174.5q0 100 65.5 174t167.5 84v80h54v-79q85 -8 145 -58t81 -127h-92q-15 43 -50.5 71t-83.5 34v-359q48 7 83.5 35t50.5 71h92q-21 -77 -81 -127.5t-145 -57.5v-79h-54zM132 250q0 -69 40 -119t105 -60v357q-66 -10 -105.5 -59
t-39.5 -119z" />
    <glyph glyph-name="sterling" unicode="&#xa3;" horiz-adv-x="563" 
d="M51 336v55h62q-22 79 -22 126q0 85 59 145t153 60q93 0 152.5 -62.5t61.5 -152.5h-86q-2 56 -37 93.5t-91 37.5t-91 -35t-35 -89q0 -40 25 -123h191v-55h-173q24 -79 24 -128q0 -75 -37 -124h310v-84h-466v84h62q47 50 47 119q0 31 -30 133h-79z" />
    <glyph glyph-name="yen" unicode="&#xa5;" horiz-adv-x="673" 
d="M86 300v54h174l-230 356h103l203 -324l203 324h104l-229 -356h173v-54h-207v-75h207v-54h-207v-171h-86v171h-208v54h208v75h-208z" />
    <glyph glyph-name="brokenbar" unicode="&#xa6;" horiz-adv-x="262" 
d="M92 -110v362h79v-362h-79zM92 348v362h79v-362h-79z" />
    <glyph glyph-name="section" unicode="&#xa7;" horiz-adv-x="458" 
d="M239 -219q-66 0 -114.5 34t-56.5 105h80q15 -69 91 -69q37 0 61.5 23t23.5 61q-4 78 -97 122l-63 30q-111 52 -111 164t107 164q-103 61 -103 161q0 66 42 106t113 40q65 0 109.5 -34t52.5 -105h-80q-15 69 -82 69q-35 0 -55.5 -21t-20.5 -55q0 -22 7.5 -39.5t23 -31
t29 -22t36.5 -20.5l63 -30q112 -52 112 -164q0 -115 -109 -164q101 -62 105 -171q0 -68 -46.5 -110.5t-117.5 -42.5zM132 255q0 -68 79 -104l7 -4q55 21 82.5 47.5t27.5 71.5q0 67 -79 104l-7 3q-55 -20 -82.5 -46.5t-27.5 -71.5z" />
    <glyph glyph-name="dieresis" unicode="&#xa8;" 
d="M-112 596q-25 0 -42 17t-17 41t17 41.5t42 17.5q24 0 41 -17.5t17 -41.5t-17 -41t-41 -17zM113 596q-24 0 -41.5 17t-17.5 41t17.5 41.5t41.5 17.5t41 -17.5t17 -41.5t-17 -41t-41 -17z" />
    <glyph glyph-name="copyright" unicode="&#xa9;" horiz-adv-x="824" 
d="M411 59q122 0 209.5 87t87.5 209t-87.5 209t-209.5 87q-121 0 -208 -87t-87 -209t87 -209t208 -87zM411 -12q-151 0 -258.5 108t-107.5 259t107.5 259t258.5 108q152 0 260 -107.5t108 -259.5t-108 -259.5t-260 -107.5zM414 163q-80 0 -136.5 56t-56.5 136t56.5 136.5
t136.5 56.5q56 0 101 -26t69 -72l-61 -34q-38 64 -109 64q-51 0 -86.5 -37t-35.5 -88t35.5 -87.5t86.5 -36.5q72 0 109 63l61 -34q-24 -45 -69 -71t-101 -26z" />
    <glyph glyph-name="ordfeminine" unicode="&#xaa;" horiz-adv-x="420" 
d="M186 404q-60 0 -101.5 46t-41.5 110t41.5 110t101.5 46q64 0 95 -44v38h70v-300h-70v38q-31 -44 -95 -44zM200 467q38 0 62.5 26.5t24.5 66.5t-24.5 66.5t-62.5 26.5t-62 -26.5t-24 -66.5t24 -66.5t62 -26.5z" />
    <glyph glyph-name="guillemotleft" unicode="&#xab;" horiz-adv-x="477" 
d="M216 250l141 217h73l-116 -217l116 -217h-73zM43 250l141 217h73l-116 -217l116 -217h-73z" />
    <glyph glyph-name="uni00AD" unicode="&#xad;" horiz-adv-x="386" 
d="M65 237v86h255v-86h-255z" />
    <glyph glyph-name="registered" unicode="&#xae;" horiz-adv-x="824" 
d="M411 -12q-151 0 -258.5 108t-107.5 259t107.5 259t258.5 108q152 0 260 -107.5t108 -259.5t-108 -259.5t-260 -107.5zM411 59q122 0 209.5 87t87.5 209t-87.5 209t-209.5 87q-121 0 -208 -87t-87 -209t87 -209t208 -87zM293 169v373h139q52 0 83 -30.5t31 -78.5
q0 -77 -79 -99l135 -165h-85l-131 159h-22v-159h-71zM364 389h60q23 0 37.5 12t14.5 32q0 21 -14 32t-38 11h-60v-87z" />
    <glyph glyph-name="macron" unicode="&#xaf;" 
d="M-161 641v69h322v-69h-322z" />
    <glyph glyph-name="degree" unicode="&#xb0;" horiz-adv-x="347" 
d="M174 517q28 0 47.5 19.5t19.5 47.5t-19.5 48t-47.5 20q-29 0 -48.5 -20t-19.5 -48t19.5 -47.5t48.5 -19.5zM174 455q-54 0 -92 37.5t-38 91.5t38 92t92 38t91.5 -38t37.5 -92t-37.5 -91.5t-91.5 -37.5z" />
    <glyph glyph-name="twosuperior" unicode="&#xb2;" horiz-adv-x="353" 
d="M319 478v-68h-287v25q0 17 4 33.5t8.5 28.5t16 26t17.5 22t22.5 21t22.5 17.5t26 18t24 16.5q38 28 55 49t17 50q0 28 -18.5 45.5t-48.5 17.5q-33 0 -54 -19.5t-21 -51.5h-71q0 62 42 101t105 39q57 0 96.5 -34t39.5 -96q0 -49 -22 -82t-72 -70q-6 -4 -28 -19
t-31.5 -22.5t-21.5 -21t-16 -26.5h195z" />
    <glyph glyph-name="threesuperior" unicode="&#xb3;" horiz-adv-x="365" 
d="M186 404q-65 0 -111 39t-46 103h69q3 -35 27.5 -54.5t61.5 -19.5q33 0 53.5 17t20.5 47q0 32 -22 49.5t-59 17.5h-34v60h34q32 0 50 16t19 43q1 26 -18 42t-47 16q-33 0 -55 -19.5t-22 -51.5h-70q0 64 43 102t104 38q62 0 99 -34t37 -89q-1 -62 -52 -93q64 -28 64 -101
q0 -57 -40.5 -92.5t-105.5 -35.5z" />
    <glyph glyph-name="acute" unicode="&#xb4;" 
d="M-102 560l93 190h110l-134 -190h-69z" />
    <glyph glyph-name="paragraph" unicode="&#xb6;" horiz-adv-x="624" 
d="M255 -184v444q-93 0 -159 66t-66 159t66 159t159 66h265v-894h-79v815h-107v-815h-79z" />
    <glyph glyph-name="periodcentered" unicode="&#xb7;" horiz-adv-x="270" 
d="M135 197q-31 0 -52.5 22t-21.5 53q0 30 22 52.5t52 22.5t52 -22.5t22 -52.5q0 -31 -21.5 -53t-52.5 -22z" />
    <glyph glyph-name="cedilla" unicode="&#xb8;" 
d="M-107 -204v55q30 -17 76 -17q29 0 48.5 10.5t19.5 30.5q0 30 -47 30q-23 0 -44 -10l-33 21l53 87h54l-34 -56q15 7 40 7q36 0 58.5 -20.5t22.5 -55.5q0 -43 -37.5 -70t-92.5 -27q-53 0 -84 15z" />
    <glyph glyph-name="onesuperior" unicode="&#xb9;" horiz-adv-x="229" 
d="M98 410v363h-87l52 69h105v-432h-70z" />
    <glyph glyph-name="ordmasculine" unicode="&#xba;" horiz-adv-x="398" 
d="M199 404q-67 0 -112 45t-45 111t45 111t112 45q66 0 111.5 -45t45.5 -111t-45.5 -111t-111.5 -45zM199 469q38 0 62.5 26t24.5 65t-24.5 65t-62.5 26t-62 -26t-24 -65t24 -65t62 -26z" />
    <glyph glyph-name="guillemotright" unicode="&#xbb;" horiz-adv-x="477" 
d="M293 467l141 -217l-141 -217h-73l116 217l-116 217h73zM120 467l141 -217l-141 -217h-73l116 217l-116 217h73z" />
    <glyph glyph-name="onequarter" unicode="&#xbc;" horiz-adv-x="788" 
d="M98 278v363h-87l52 69h105v-432h-70zM125 0h-81l500 710h81zM637 1v107h-221v56l228 269h63v-261h58v-64h-58v-107h-70zM502 172h135v157z" />
    <glyph glyph-name="onehalf" unicode="&#xbd;" horiz-adv-x="777" 
d="M98 278v363h-87l52 69h105v-432h-70zM125 0h-81l500 710h81zM743 69v-68h-287v25q0 17 4 33.5t8.5 28.5t16 26t17.5 22t22.5 21t22.5 17.5t26 18t24 16.5q38 28 55 49t17 50q0 28 -18.5 45.5t-48.5 17.5q-33 0 -54 -19.5t-21 -51.5h-71q0 62 42 101t105 39q57 0 96.5 -34
t39.5 -96q0 -49 -22 -82t-72 -70q-6 -4 -28 -19t-31.5 -22.5t-21.5 -21t-16 -26.5h195z" />
    <glyph glyph-name="threequarters" unicode="&#xbe;" horiz-adv-x="908" 
d="M186 272q-65 0 -111 39t-46 103h69q3 -35 27.5 -54.5t61.5 -19.5q33 0 53.5 17t20.5 47q0 32 -22 49.5t-59 17.5h-34v60h34q32 0 50 16t19 43q1 26 -18 42t-47 16q-33 0 -55 -19.5t-22 -51.5h-70q0 64 43 102t104 38q62 0 99 -34t37 -89q-1 -62 -52 -93q64 -28 64 -101
q0 -57 -40.5 -92.5t-105.5 -35.5zM246 0h-81l500 710h81zM758 1v107h-221v56l228 269h63v-261h58v-64h-58v-107h-70zM623 172h135v157z" />
    <glyph glyph-name="questiondown" unicode="&#xbf;" horiz-adv-x="494" 
d="M308 266v-20q0 -64 -91 -130q-49 -35 -71 -62.5t-22 -67.5q0 -52 33.5 -87t86.5 -35q60 0 97.5 36.5t37.5 96.5h86q0 -91 -63 -154t-158 -63q-91 0 -148.5 60t-57.5 144q0 60 29 102t76 78q4 3 15.5 12t16.5 13t14.5 12t13.5 13.5t9.5 13t7.5 15t2 15.5v8h86zM266 510
q31 0 52.5 -22t21.5 -53q0 -30 -22 -52.5t-52 -22.5t-52 22.5t-22 52.5q0 31 21.5 53t52.5 22z" />
    <glyph glyph-name="Agrave" unicode="&#xc0;" horiz-adv-x="718" 
d="M6 0l314 710h77l315 -710h-97l-92 207h-331l-90 -207h-96zM357 584l-128 -293h257zM392 770h-72l-114 157h108z" />
    <glyph glyph-name="Aacute" unicode="&#xc1;" horiz-adv-x="718" 
d="M6 0l314 710h77l315 -710h-97l-92 207h-331l-90 -207h-96zM357 584l-128 -293h257zM331 770l78 157h108l-114 -157h-72z" />
    <glyph glyph-name="Acircumflex" unicode="&#xc2;" horiz-adv-x="718" 
d="M6 0l314 710h77l315 -710h-97l-92 207h-331l-90 -207h-96zM357 584l-128 -293h257zM192 768v77l166 87l166 -87v-77l-166 87z" />
    <glyph glyph-name="Atilde" unicode="&#xc3;" horiz-adv-x="718" 
d="M6 0l314 710h77l315 -710h-97l-92 207h-331l-90 -207h-96zM357 584l-128 -293h257zM185 786l3 18q8 43 37 69t69 26q28 0 72 -22t57 -22q32 0 43 44h66l-4 -19q-8 -43 -36.5 -68.5t-69.5 -25.5q-29 0 -72 22t-56 22q-32 0 -44 -44h-65z" />
    <glyph glyph-name="Adieresis" unicode="&#xc4;" horiz-adv-x="718" 
d="M6 0l314 710h77l315 -710h-97l-92 207h-331l-90 -207h-96zM357 584l-128 -293h257zM246 785q-25 0 -42 17t-17 41t17 41.5t42 17.5q24 0 41 -17.5t17 -41.5t-17 -41t-41 -17zM471 785q-24 0 -41.5 17t-17.5 41t17.5 41.5t41.5 17.5t41 -17.5t17 -41.5t-17 -41t-41 -17z
" />
    <glyph glyph-name="Aring" unicode="&#xc5;" horiz-adv-x="718" 
d="M6 0l314 710h77l315 -710h-97l-92 207h-331l-90 -207h-96zM357 584l-128 -293h257zM358 753q-50 0 -85.5 35t-35.5 85t35.5 85t85.5 35t86 -35.5t36 -84.5t-36 -84.5t-86 -35.5zM358 804q29 0 50 20t21 49t-21 49.5t-50 20.5t-49 -20.5t-20 -49.5t20 -49t49 -20z" />
    <glyph glyph-name="AE" unicode="&#xc6;" horiz-adv-x="914" 
d="M451 0v207h-248l-123 -207h-103l425 710h463v-88h-321v-215h261v-88h-261v-231h321v-88h-414zM450 622l-197 -331h198v331h-1z" />
    <glyph glyph-name="Ccedilla" unicode="&#xc7;" horiz-adv-x="755" 
d="M412 -12q-153 0 -260 106.5t-107 260.5t107 260.5t260 106.5q101 0 183 -46t131 -126l-78 -47q-38 61 -99 96t-137 35q-116 0 -194.5 -81t-78.5 -198t78.5 -198t194.5 -81q76 0 137 35t99 96l78 -47q-49 -80 -131 -126t-183 -46zM305 -204v55q30 -17 76 -17q29 0 48.5 10
t19.5 31q0 30 -46 30q-24 0 -45 -10l-32 21l52 87h55l-34 -56q15 7 40 7q36 0 58 -20.5t22 -55.5q0 -43 -37 -70t-92 -27q-53 0 -85 15z" />
    <glyph glyph-name="Egrave" unicode="&#xc8;" horiz-adv-x="557" 
d="M94 0v710h414v-88h-321v-215h261v-88h-261v-231h321v-88h-414zM334 770h-72l-114 157h108z" />
    <glyph glyph-name="Eacute" unicode="&#xc9;" horiz-adv-x="557" 
d="M94 0v710h414v-88h-321v-215h261v-88h-261v-231h321v-88h-414zM273 770l78 157h108l-114 -157h-72z" />
    <glyph glyph-name="Ecircumflex" unicode="&#xca;" horiz-adv-x="557" 
d="M94 0v710h414v-88h-321v-215h261v-88h-261v-231h321v-88h-414zM135 768v77l166 87l166 -87v-77l-166 87z" />
    <glyph glyph-name="Edieresis" unicode="&#xcb;" horiz-adv-x="557" 
d="M94 0v710h414v-88h-321v-215h261v-88h-261v-231h321v-88h-414zM189 785q-25 0 -42 17t-17 41t17 41.5t42 17.5q24 0 41 -17.5t17 -41.5t-17 -41t-41 -17zM414 785q-24 0 -41.5 17t-17.5 41t17.5 41.5t41.5 17.5t41 -17.5t17 -41.5t-17 -41t-41 -17z" />
    <glyph glyph-name="Igrave" unicode="&#xcc;" horiz-adv-x="281" 
d="M94 0v710h93v-710h-93zM174 770h-72l-114 157h108z" />
    <glyph glyph-name="Iacute" unicode="&#xcd;" horiz-adv-x="281" 
d="M94 0v710h93v-710h-93zM113 770l78 157h108l-114 -157h-72z" />
    <glyph glyph-name="Icircumflex" unicode="&#xce;" horiz-adv-x="281" 
d="M94 0v710h93v-710h-93zM-25 768v77l166 87l166 -87v-77l-166 87z" />
    <glyph glyph-name="Idieresis" unicode="&#xcf;" horiz-adv-x="281" 
d="M94 0v710h93v-710h-93zM29 785q-25 0 -42 17t-17 41t17 41.5t42 17.5q24 0 41 -17.5t17 -41.5t-17 -41t-41 -17zM254 785q-24 0 -41.5 17t-17.5 41t17.5 41.5t41.5 17.5t41 -17.5t17 -41.5t-17 -41t-41 -17z" />
    <glyph glyph-name="Eth" unicode="&#xd0;" horiz-adv-x="729" 
d="M101 0v710h204q163 0 270.5 -101t107.5 -254t-107.5 -254t-270.5 -101h-204zM194 87h111q127 0 205.5 75.5t78.5 192.5t-78.5 192.5t-205.5 75.5h-111v-536zM28 319v82h326v-82h-326z" />
    <glyph glyph-name="Ntilde" unicode="&#xd1;" horiz-adv-x="794" 
d="M699 0h-80l-432 553v-553h-93v710h81l432 -553v553h92v-710zM220 786l3 18q8 43 37 69t69 26q29 0 72 -22t57 -22q32 0 43 44h66l-4 -19q-8 -43 -36.5 -68.5t-69.5 -25.5q-29 0 -72 22t-56 22q-32 0 -44 -44h-65z" />
    <glyph glyph-name="Ograve" unicode="&#xd2;" horiz-adv-x="825" 
d="M412 76q117 0 195.5 81t78.5 198t-78.5 198t-195.5 81q-116 0 -194.5 -81t-78.5 -198t78.5 -198t194.5 -81zM412 -12q-153 0 -260 106.5t-107 260.5t107 260.5t260 106.5q154 0 260.5 -106.5t106.5 -260.5t-106.5 -260.5t-260.5 -106.5zM446 770h-72l-114 157h108z" />
    <glyph glyph-name="Oacute" unicode="&#xd3;" horiz-adv-x="825" 
d="M412 76q117 0 195.5 81t78.5 198t-78.5 198t-195.5 81q-116 0 -194.5 -81t-78.5 -198t78.5 -198t194.5 -81zM412 -12q-153 0 -260 106.5t-107 260.5t107 260.5t260 106.5q154 0 260.5 -106.5t106.5 -260.5t-106.5 -260.5t-260.5 -106.5zM385 770l78 157h108l-114 -157
h-72z" />
    <glyph glyph-name="Ocircumflex" unicode="&#xd4;" horiz-adv-x="825" 
d="M412 76q117 0 195.5 81t78.5 198t-78.5 198t-195.5 81q-116 0 -194.5 -81t-78.5 -198t78.5 -198t194.5 -81zM412 -12q-153 0 -260 106.5t-107 260.5t107 260.5t260 106.5q154 0 260.5 -106.5t106.5 -260.5t-106.5 -260.5t-260.5 -106.5zM246 768v77l166 87l166 -87v-77
l-166 87z" />
    <glyph glyph-name="Otilde" unicode="&#xd5;" horiz-adv-x="825" 
d="M412 76q117 0 195.5 81t78.5 198t-78.5 198t-195.5 81q-116 0 -194.5 -81t-78.5 -198t78.5 -198t194.5 -81zM412 -12q-153 0 -260 106.5t-107 260.5t107 260.5t260 106.5q154 0 260.5 -106.5t106.5 -260.5t-106.5 -260.5t-260.5 -106.5zM239 786l3 18q8 43 37 69t69 26
q28 0 72 -22t57 -22q32 0 43 44h66l-4 -19q-8 -43 -36.5 -68.5t-69.5 -25.5q-29 0 -72 22t-56 22q-32 0 -44 -44h-65z" />
    <glyph glyph-name="Odieresis" unicode="&#xd6;" horiz-adv-x="825" 
d="M412 76q117 0 195.5 81t78.5 198t-78.5 198t-195.5 81q-116 0 -194.5 -81t-78.5 -198t78.5 -198t194.5 -81zM412 -12q-153 0 -260 106.5t-107 260.5t107 260.5t260 106.5q154 0 260.5 -106.5t106.5 -260.5t-106.5 -260.5t-260.5 -106.5zM300 785q-25 0 -42 17t-17 41
t17 41.5t42 17.5q24 0 41 -17.5t17 -41.5t-17 -41t-41 -17zM525 785q-24 0 -41.5 17t-17.5 41t17.5 41.5t41.5 17.5t41 -17.5t17 -41.5t-17 -41t-41 -17z" />
    <glyph glyph-name="multiply" unicode="&#xd7;" horiz-adv-x="503" 
d="M109 94l-56 55l143 141l-143 140l56 56l143 -140l142 140l56 -56l-143 -140l143 -141l-56 -55l-142 140z" />
    <glyph glyph-name="Oslash" unicode="&#xd8;" horiz-adv-x="826" 
d="M413 76q117 0 195.5 81t78.5 198t-78.5 198t-195.5 81q-116 0 -194.5 -81t-78.5 -198t78.5 -198t194.5 -81zM413 -12q-153 0 -260 106.5t-107 260.5t107 260.5t260 106.5q154 0 260.5 -106.5t106.5 -260.5t-106.5 -260.5t-260.5 -106.5zM752 679l-622 -699l-56 52
l623 698z" />
    <glyph glyph-name="Ugrave" unicode="&#xd9;" horiz-adv-x="726" 
d="M363 -12q-124 0 -201 78.5t-77 209.5v434h93v-436q0 -95 50 -146.5t135 -51.5t135 51.5t50 146.5v436h93v-434q0 -131 -77 -209.5t-201 -78.5zM396 770h-72l-114 157h108z" />
    <glyph glyph-name="Uacute" unicode="&#xda;" horiz-adv-x="726" 
d="M363 -12q-124 0 -201 78.5t-77 209.5v434h93v-436q0 -95 50 -146.5t135 -51.5t135 51.5t50 146.5v436h93v-434q0 -131 -77 -209.5t-201 -78.5zM335 770l78 157h108l-114 -157h-72z" />
    <glyph glyph-name="Ucircumflex" unicode="&#xdb;" horiz-adv-x="726" 
d="M363 -12q-124 0 -201 78.5t-77 209.5v434h93v-436q0 -95 50 -146.5t135 -51.5t135 51.5t50 146.5v436h93v-434q0 -131 -77 -209.5t-201 -78.5zM197 768v77l166 87l166 -87v-77l-166 87z" />
    <glyph glyph-name="Udieresis" unicode="&#xdc;" horiz-adv-x="726" 
d="M363 -12q-124 0 -201 78.5t-77 209.5v434h93v-436q0 -95 50 -146.5t135 -51.5t135 51.5t50 146.5v436h93v-434q0 -131 -77 -209.5t-201 -78.5zM251 785q-25 0 -42 17t-17 41t17 41.5t42 17.5q24 0 41 -17.5t17 -41.5t-17 -41t-41 -17zM476 785q-24 0 -41.5 17t-17.5 41
t17.5 41.5t41.5 17.5t41 -17.5t17 -41.5t-17 -41t-41 -17z" />
    <glyph glyph-name="Yacute" unicode="&#xdd;" horiz-adv-x="674" 
d="M291 0v301l-276 409h111l211 -316l212 316h111l-277 -410v-300h-92zM309 770l78 157h108l-114 -157h-72z" />
    <glyph glyph-name="Thorn" unicode="&#xde;" horiz-adv-x="595" 
d="M555 355q0 -97 -67.5 -161t-176.5 -64h-124v-130h-93v710h93v-129h124q109 0 176.5 -64t67.5 -162zM463 355q0 61 -40.5 100.5t-111.5 39.5h-124v-279h124q71 0 111.5 39t40.5 100z" />
    <glyph glyph-name="germandbls" unicode="&#xdf;" horiz-adv-x="573" 
d="M81 0v547q0 92 59.5 150.5t145.5 58.5q84 0 144.5 -56t60.5 -136q0 -49 -23 -91t-65 -68q61 -25 95 -77t34 -111q0 -90 -63.5 -153.5t-166.5 -63.5h-51v81h47q64 0 106 39t42 99q0 59 -42 98.5t-106 39.5h-45v81h26q55 0 90.5 34.5t35.5 83.5q0 50 -34 84.5t-84 34.5
q-51 0 -85.5 -36.5t-34.5 -92.5v-546h-86z" />
    <glyph glyph-name="agrave" unicode="&#xe0;" horiz-adv-x="630" 
d="M287 -10q-104 0 -174.5 76t-70.5 184t70.5 184t174.5 76q55 0 102.5 -24.5t73.5 -62.5v77h86v-500h-86v77q-26 -38 -73.5 -62.5t-102.5 -24.5zM300 69q74 0 122 52t48 129t-48 129t-122 52q-75 0 -123 -52t-48 -129t48 -129t123 -52zM282 560l-134 190h110l94 -190h-70z
" />
    <glyph glyph-name="aacute" unicode="&#xe1;" horiz-adv-x="630" 
d="M287 -10q-104 0 -174.5 76t-70.5 184t70.5 184t174.5 76q55 0 102.5 -24.5t73.5 -62.5v77h86v-500h-86v77q-26 -38 -73.5 -62.5t-102.5 -24.5zM300 69q74 0 122 52t48 129t-48 129t-122 52q-75 0 -123 -52t-48 -129t48 -129t123 -52zM290 560l93 190h110l-134 -190h-69z
" />
    <glyph glyph-name="acircumflex" unicode="&#xe2;" horiz-adv-x="630" 
d="M287 -10q-104 0 -174.5 76t-70.5 184t70.5 184t174.5 76q55 0 102.5 -24.5t73.5 -62.5v77h86v-500h-86v77q-26 -38 -73.5 -62.5t-102.5 -24.5zM300 69q74 0 122 52t48 129t-48 129t-122 52q-75 0 -123 -52t-48 -129t48 -129t123 -52zM320 756l159 -101v-79l-159 101
l-159 -101v79z" />
    <glyph glyph-name="atilde" unicode="&#xe3;" horiz-adv-x="630" 
d="M287 -10q-104 0 -174.5 76t-70.5 184t70.5 184t174.5 76q55 0 102.5 -24.5t73.5 -62.5v77h86v-500h-86v77q-26 -38 -73.5 -62.5t-102.5 -24.5zM300 69q74 0 122 52t48 129t-48 129t-122 52q-75 0 -123 -52t-48 -129t48 -129t123 -52zM146 593l3 18q8 43 37 69t69 26
q29 0 72.5 -22t56.5 -22q32 0 43 44h66l-3 -18q-8 -43 -37 -69t-69 -26q-29 0 -72.5 22t-56.5 22q-32 0 -43 -44h-66z" />
    <glyph glyph-name="adieresis" unicode="&#xe4;" horiz-adv-x="630" 
d="M287 -10q-104 0 -174.5 76t-70.5 184t70.5 184t174.5 76q55 0 102.5 -24.5t73.5 -62.5v77h86v-500h-86v77q-26 -38 -73.5 -62.5t-102.5 -24.5zM300 69q74 0 122 52t48 129t-48 129t-122 52q-75 0 -123 -52t-48 -129t48 -129t123 -52zM208 596q-25 0 -42 17t-17 41
t17 41.5t42 17.5q24 0 41 -17.5t17 -41.5t-17 -41t-41 -17zM433 596q-24 0 -41.5 17t-17.5 41t17.5 41.5t41.5 17.5t41 -17.5t17 -41.5t-17 -41t-41 -17z" />
    <glyph glyph-name="aring" unicode="&#xe5;" horiz-adv-x="630" 
d="M287 -10q-104 0 -174.5 76t-70.5 184t70.5 184t174.5 76q55 0 102.5 -24.5t73.5 -62.5v77h86v-500h-86v77q-26 -38 -73.5 -62.5t-102.5 -24.5zM300 69q74 0 122 52t48 129t-48 129t-122 52q-75 0 -123 -52t-48 -129t48 -129t123 -52zM320 543q-50 0 -85.5 35t-35.5 85
t35.5 85t85.5 35t86 -35.5t36 -84.5t-36 -84.5t-86 -35.5zM320 594q29 0 50 20t21 49t-21 49.5t-50 20.5t-49 -20.5t-20 -49.5t20 -49t49 -20z" />
    <glyph glyph-name="ae" unicode="&#xe6;" horiz-adv-x="901" 
d="M219 -10q-85 0 -132 43t-47 102q0 133 215 157q55 6 114 10v27q0 42 -31 73.5t-79 31.5q-89 0 -140 -81l-66 45q27 51 84 81.5t124 30.5q55 0 98.5 -24.5t66.5 -69.5q30 44 83 69t115 25q100 0 168 -67.5t68 -183.5q0 -15 -1 -26h-410q2 -71 50.5 -117.5t121.5 -46.5
q106 0 157 87l68 -47q-73 -119 -222 -119q-67 0 -121.5 27t-88.5 72q-56 -99 -195 -99zM454 303h318q-10 60 -52.5 95.5t-100.5 35.5q-59 0 -106 -35.5t-59 -95.5zM232 64q64 0 101 31t37 94v44q-92 -6 -135 -14q-56 -11 -78.5 -30t-22.5 -51q0 -35 26.5 -54.5t71.5 -19.5z
" />
    <glyph glyph-name="ccedilla" unicode="&#xe7;" horiz-adv-x="565" 
d="M304 -10q-113 0 -187.5 75t-74.5 185t74.5 185t187.5 75q76 0 136.5 -36t94.5 -98l-75 -42q-22 44 -62.5 70t-93.5 26q-77 0 -126 -52t-49 -128t49 -128t126 -52q53 0 93.5 26t62.5 70l75 -42q-34 -62 -94.5 -98t-136.5 -36zM198 -204v55q30 -17 76 -17q29 0 48.5 10.5
t19.5 30.5q0 30 -47 30q-23 0 -44 -10l-33 21l53 87h54l-34 -56q15 7 40 7q36 0 58.5 -20.5t22.5 -55.5q0 -43 -37.5 -70t-92.5 -27q-53 0 -84 15z" />
    <glyph glyph-name="egrave" unicode="&#xe8;" horiz-adv-x="581" 
d="M301 -10q-115 0 -187 74t-72 186q0 111 73 185.5t187 74.5q101 0 169.5 -67.5t68.5 -183.5q0 -15 -1 -26h-410q2 -70 50.5 -117t122.5 -47q105 0 156 87l68 -47q-73 -119 -225 -119zM135 303h317q-10 60 -52.5 95.5t-100.5 35.5q-59 0 -105.5 -35.5t-58.5 -95.5zM265 560
l-134 190h110l94 -190h-70z" />
    <glyph glyph-name="eacute" unicode="&#xe9;" horiz-adv-x="581" 
d="M301 -10q-115 0 -187 74t-72 186q0 111 73 185.5t187 74.5q101 0 169.5 -67.5t68.5 -183.5q0 -15 -1 -26h-410q2 -70 50.5 -117t122.5 -47q105 0 156 87l68 -47q-73 -119 -225 -119zM135 303h317q-10 60 -52.5 95.5t-100.5 35.5q-59 0 -105.5 -35.5t-58.5 -95.5zM272 560
l93 190h110l-134 -190h-69z" />
    <glyph glyph-name="ecircumflex" unicode="&#xea;" horiz-adv-x="581" 
d="M301 -10q-115 0 -187 74t-72 186q0 111 73 185.5t187 74.5q101 0 169.5 -67.5t68.5 -183.5q0 -15 -1 -26h-410q2 -70 50.5 -117t122.5 -47q105 0 156 87l68 -47q-73 -119 -225 -119zM135 303h317q-10 60 -52.5 95.5t-100.5 35.5q-59 0 -105.5 -35.5t-58.5 -95.5zM303 756
l159 -101v-79l-159 101l-159 -101v79z" />
    <glyph glyph-name="edieresis" unicode="&#xeb;" horiz-adv-x="581" 
d="M301 -10q-115 0 -187 74t-72 186q0 111 73 185.5t187 74.5q101 0 169.5 -67.5t68.5 -183.5q0 -15 -1 -26h-410q2 -70 50.5 -117t122.5 -47q105 0 156 87l68 -47q-73 -119 -225 -119zM135 303h317q-10 60 -52.5 95.5t-100.5 35.5q-59 0 -105.5 -35.5t-58.5 -95.5zM191 596
q-25 0 -42 17t-17 41t17 41.5t42 17.5q24 0 41 -17.5t17 -41.5t-17 -41t-41 -17zM416 596q-24 0 -41.5 17t-17.5 41t17.5 41.5t41.5 17.5t41 -17.5t17 -41.5t-17 -41t-41 -17z" />
    <glyph glyph-name="igrave" unicode="&#xec;" horiz-adv-x="249" 
d="M81 0v500h86v-500h-86zM86 560l-134 190h110l94 -190h-70z" />
    <glyph glyph-name="iacute" unicode="&#xed;" horiz-adv-x="249" 
d="M81 0v500h86v-500h-86zM94 560l93 190h110l-134 -190h-69z" />
    <glyph glyph-name="icircumflex" unicode="&#xee;" horiz-adv-x="249" 
d="M81 0v500h86v-500h-86zM124 756l159 -101v-79l-159 101l-159 -101v79z" />
    <glyph glyph-name="idieresis" unicode="&#xef;" horiz-adv-x="249" 
d="M81 0v500h86v-500h-86zM26 596q-26 0 -43.5 17.5t-17.5 43.5q0 25 17.5 42.5t43.5 17.5q25 0 43 -17.5t18 -42.5q0 -26 -18 -43.5t-43 -17.5zM222 596q-26 0 -43.5 17.5t-17.5 43.5q0 25 17.5 42.5t43.5 17.5q25 0 43 -17.5t18 -42.5q0 -26 -18 -43.5t-43 -17.5z" />
    <glyph glyph-name="eth" unicode="&#xf0;" horiz-adv-x="606" 
d="M478 574h-78l111 -164q54 -82 54 -160q0 -109 -74.5 -184.5t-187.5 -75.5q-111 0 -186 76t-75 184q0 110 75.5 184.5t182.5 74.5q22 0 53 -6l-47 71h-143v68h97l-73 108h94l73 -108h124v-68zM303 70q77 0 125.5 52t48.5 128t-48.5 128t-125.5 52t-125.5 -52t-48.5 -128
t48.5 -128t125.5 -52z" />
    <glyph glyph-name="ntilde" unicode="&#xf1;" horiz-adv-x="589" 
d="M81 0v500h86v-77q51 87 159 87q85 0 137 -55t52 -147v-308h-85v295q0 63 -32 99.5t-86 36.5q-62 0 -103.5 -49t-41.5 -134v-248h-86zM124 593l3 18q8 43 37 69t69 26q29 0 72.5 -22t56.5 -22q32 0 43 44h66l-3 -18q-8 -43 -37 -69t-69 -26q-29 0 -72.5 22t-56.5 22
q-32 0 -43 -44h-66z" />
    <glyph glyph-name="ograve" unicode="&#xf2;" horiz-adv-x="606" 
d="M303 -10q-113 0 -187.5 75.5t-74.5 184.5t74.5 184.5t187.5 75.5q112 0 186.5 -75.5t74.5 -184.5t-74.5 -184.5t-186.5 -75.5zM303 70q77 0 125 52t48 128t-48 128t-125 52t-125.5 -52t-48.5 -128t48.5 -128t125.5 -52zM265 560l-134 190h110l94 -190h-70z" />
    <glyph glyph-name="oacute" unicode="&#xf3;" horiz-adv-x="606" 
d="M303 -10q-113 0 -187.5 75.5t-74.5 184.5t74.5 184.5t187.5 75.5q112 0 186.5 -75.5t74.5 -184.5t-74.5 -184.5t-186.5 -75.5zM303 70q77 0 125 52t48 128t-48 128t-125 52t-125.5 -52t-48.5 -128t48.5 -128t125.5 -52zM273 560l93 190h110l-134 -190h-69z" />
    <glyph glyph-name="ocircumflex" unicode="&#xf4;" horiz-adv-x="606" 
d="M303 -10q-113 0 -187.5 75.5t-74.5 184.5t74.5 184.5t187.5 75.5q112 0 186.5 -75.5t74.5 -184.5t-74.5 -184.5t-186.5 -75.5zM303 70q77 0 125 52t48 128t-48 128t-125 52t-125.5 -52t-48.5 -128t48.5 -128t125.5 -52zM303 756l159 -101v-79l-159 101l-159 -101v79z" />
    <glyph glyph-name="otilde" unicode="&#xf5;" horiz-adv-x="606" 
d="M303 -10q-113 0 -187.5 75.5t-74.5 184.5t74.5 184.5t187.5 75.5q112 0 186.5 -75.5t74.5 -184.5t-74.5 -184.5t-186.5 -75.5zM303 70q77 0 125 52t48 128t-48 128t-125 52t-125.5 -52t-48.5 -128t48.5 -128t125.5 -52zM129 593l3 18q8 43 37 69t69 26q29 0 72.5 -22
t56.5 -22q32 0 43 44h66l-3 -18q-8 -43 -37 -69t-69 -26q-29 0 -72.5 22t-56.5 22q-32 0 -43 -44h-66z" />
    <glyph glyph-name="odieresis" unicode="&#xf6;" horiz-adv-x="606" 
d="M303 -10q-113 0 -187.5 75.5t-74.5 184.5t74.5 184.5t187.5 75.5q112 0 186.5 -75.5t74.5 -184.5t-74.5 -184.5t-186.5 -75.5zM303 70q77 0 125 52t48 128t-48 128t-125 52t-125.5 -52t-48.5 -128t48.5 -128t125.5 -52zM191 596q-25 0 -42 17t-17 41t17 41.5t42 17.5
q24 0 41 -17.5t17 -41.5t-17 -41t-41 -17zM416 596q-24 0 -41.5 17t-17.5 41t17.5 41.5t41.5 17.5t41 -17.5t17 -41.5t-17 -41t-41 -17z" />
    <glyph glyph-name="oslash" unicode="&#xf8;" horiz-adv-x="616" 
d="M308 -10q-113 0 -187.5 75.5t-74.5 184.5t74.5 184.5t187.5 75.5q112 0 186.5 -75.5t74.5 -184.5t-74.5 -184.5t-186.5 -75.5zM308 70q77 0 125 52t48 128t-48 128t-125 52t-125.5 -52t-48.5 -128t48.5 -128t125.5 -52zM563 471l-470 -481l-40 40l471 480z" />
    <glyph glyph-name="ugrave" unicode="&#xf9;" horiz-adv-x="579" 
d="M258 -10q-82 0 -133 55.5t-51 147.5v307h86v-294q0 -63 30.5 -100t82.5 -37q60 0 99.5 49.5t39.5 133.5v248h86v-500h-86v77q-49 -87 -154 -87zM247 560l-134 190h110l94 -190h-70z" />
    <glyph glyph-name="uacute" unicode="&#xfa;" horiz-adv-x="579" 
d="M258 -10q-82 0 -133 55.5t-51 147.5v307h86v-294q0 -63 30.5 -100t82.5 -37q60 0 99.5 49.5t39.5 133.5v248h86v-500h-86v77q-49 -87 -154 -87zM255 560l93 190h110l-134 -190h-69z" />
    <glyph glyph-name="ucircumflex" unicode="&#xfb;" horiz-adv-x="579" 
d="M258 -10q-82 0 -133 55.5t-51 147.5v307h86v-294q0 -63 30.5 -100t82.5 -37q60 0 99.5 49.5t39.5 133.5v248h86v-500h-86v77q-49 -87 -154 -87zM285 756l159 -101v-79l-159 101l-159 -101v79z" />
    <glyph glyph-name="udieresis" unicode="&#xfc;" horiz-adv-x="579" 
d="M258 -10q-82 0 -133 55.5t-51 147.5v307h86v-294q0 -63 30.5 -100t82.5 -37q60 0 99.5 49.5t39.5 133.5v248h86v-500h-86v77q-49 -87 -154 -87zM173 596q-25 0 -42 17t-17 41t17 41.5t42 17.5q24 0 41 -17.5t17 -41.5t-17 -41t-41 -17zM398 596q-24 0 -41.5 17t-17.5 41
t17.5 41.5t41.5 17.5t41 -17.5t17 -41.5t-17 -41t-41 -17z" />
    <glyph glyph-name="yacute" unicode="&#xfd;" horiz-adv-x="547" 
d="M214 -209h-96l109 235l-219 474h95l172 -380l171 380h96zM245 560l93 190h110l-134 -190h-69z" />
    <glyph glyph-name="thorn" unicode="&#xfe;" horiz-adv-x="630" 
d="M167 -209h-86v959h86v-327q26 38 73.5 62.5t102.5 24.5q104 0 174.5 -76t70.5 -184t-70.5 -184t-174.5 -76q-55 0 -102.5 24.5t-73.5 62.5v-286zM330 69q74 0 122 52t48 129t-48 129t-122 52t-122 -52t-48 -129t48 -129t122 -52z" />
    <glyph glyph-name="ydieresis" unicode="&#xff;" horiz-adv-x="547" 
d="M214 -209h-96l109 235l-219 474h95l172 -380l171 380h96zM163 596q-25 0 -42 17t-17 41t17 41.5t42 17.5q24 0 41 -17.5t17 -41.5t-17 -41t-41 -17zM388 596q-24 0 -41.5 17t-17.5 41t17.5 41.5t41.5 17.5t41 -17.5t17 -41.5t-17 -41t-41 -17z" />
    <glyph glyph-name="Amacron" unicode="&#x100;" horiz-adv-x="718" 
d="M6 0l314 710h77l315 -710h-97l-92 207h-331l-90 -207h-96zM357 584l-128 -293h257zM197 805v69h322v-69h-322z" />
    <glyph glyph-name="amacron" unicode="&#x101;" horiz-adv-x="630" 
d="M287 -10q-104 0 -174.5 76t-70.5 184t70.5 184t174.5 76q55 0 102.5 -24.5t73.5 -62.5v77h86v-500h-86v77q-26 -38 -73.5 -62.5t-102.5 -24.5zM300 69q74 0 122 52t48 129t-48 129t-122 52q-75 0 -123 -52t-48 -129t48 -129t123 -52zM159 641v69h322v-69h-322z" />
    <glyph glyph-name="Abreve" unicode="&#x102;" horiz-adv-x="718" 
d="M6 0l314 710h77l315 -710h-97l-92 207h-331l-90 -207h-96zM357 584l-128 -293h257zM358 759q-68 0 -113.5 43.5t-45.5 114.5h58q0 -47 28.5 -74t72.5 -27t72.5 27t28.5 74h58q0 -71 -45.5 -114.5t-113.5 -43.5z" />
    <glyph glyph-name="abreve" unicode="&#x103;" horiz-adv-x="630" 
d="M287 -10q-104 0 -174.5 76t-70.5 184t70.5 184t174.5 76q55 0 102.5 -24.5t73.5 -62.5v77h86v-500h-86v77q-26 -38 -73.5 -62.5t-102.5 -24.5zM300 69q74 0 122 52t48 129t-48 129t-122 52q-75 0 -123 -52t-48 -129t48 -129t123 -52zM320 578q-68 0 -113.5 44t-45.5 115
v13h58v-13q0 -48 28.5 -74.5t72.5 -26.5t72.5 26.5t28.5 74.5v13h58v-13q0 -71 -45.5 -115t-113.5 -44z" />
    <glyph glyph-name="Aogonek" unicode="&#x104;" horiz-adv-x="718" 
d="M6 0l314 710h77l315 -710q-92 -57 -92 -112q0 -33 36 -33q28 0 56 22v-70q-29 -26 -81 -26q-40 0 -67.5 25t-27.5 64q0 68 79 130l-92 207h-331l-90 -207h-96zM357 584l-128 -293h257z" />
    <glyph glyph-name="aogonek" unicode="&#x105;" horiz-adv-x="630" 
d="M287 -10q-104 0 -174.5 76t-70.5 184t70.5 184t174.5 76q55 0 102.5 -24.5t73.5 -62.5v77h86v-500h-86v77q-26 -38 -73.5 -62.5t-102.5 -24.5zM300 69q74 0 122 52t48 129t-48 129t-122 52q-75 0 -123 -52t-48 -129t48 -129t123 -52zM471 -219q-40 0 -67 24.5t-27 62.5
q0 30 16 58t29.5 40.5t39.5 33.5h86q-93 -58 -93 -115q0 -37 38 -37q25 0 55 22v-63q-28 -26 -77 -26z" />
    <glyph glyph-name="Cacute" unicode="&#x106;" horiz-adv-x="755" 
d="M412 -12q-153 0 -260 106.5t-107 260.5t107 260.5t260 106.5q101 0 183 -46t131 -126l-78 -47q-38 61 -99 96t-137 35q-116 0 -194.5 -81t-78.5 -198t78.5 -198t194.5 -81q76 0 137 35t99 96l78 -47q-49 -80 -131 -126t-183 -46zM385 770l78 157h108l-114 -157h-72z" />
    <glyph glyph-name="cacute" unicode="&#x107;" horiz-adv-x="565" 
d="M304 -10q-113 0 -187.5 75t-74.5 185t74.5 185t187.5 75q76 0 136.5 -36t94.5 -98l-75 -42q-22 44 -62.5 70t-93.5 26q-77 0 -126 -52t-49 -128t49 -128t126 -52q53 0 93.5 26t62.5 70l75 -42q-34 -62 -94.5 -98t-136.5 -36zM273 560l93 190h110l-134 -190h-69z" />
    <glyph glyph-name="Ccircumflex" unicode="&#x108;" horiz-adv-x="755" 
d="M412 -12q-153 0 -260 106.5t-107 260.5t107 260.5t260 106.5q101 0 183 -46t131 -126l-78 -47q-38 61 -99 96t-137 35q-116 0 -194.5 -81t-78.5 -198t78.5 -198t194.5 -81q76 0 137 35t99 96l78 -47q-49 -80 -131 -126t-183 -46zM246 768v77l166 87l166 -87v-77l-166 87z
" />
    <glyph glyph-name="ccircumflex" unicode="&#x109;" horiz-adv-x="565" 
d="M304 -10q-113 0 -187.5 75t-74.5 185t74.5 185t187.5 75q76 0 136.5 -36t94.5 -98l-75 -42q-22 44 -62.5 70t-93.5 26q-77 0 -126 -52t-49 -128t49 -128t126 -52q53 0 93.5 26t62.5 70l75 -42q-34 -62 -94.5 -98t-136.5 -36zM304 756l159 -101v-79l-159 101l-159 -101v79
z" />
    <glyph glyph-name="Cdotaccent" unicode="&#x10a;" horiz-adv-x="755" 
d="M412 -12q-153 0 -260 106.5t-107 260.5t107 260.5t260 106.5q101 0 183 -46t131 -126l-78 -47q-38 61 -99 96t-137 35q-116 0 -194.5 -81t-78.5 -198t78.5 -198t194.5 -81q76 0 137 35t99 96l78 -47q-49 -80 -131 -126t-183 -46zM412 785q-25 0 -42 17t-17 41t17 41.5
t42 17.5q24 0 41 -17.5t17 -41.5t-17 -41t-41 -17z" />
    <glyph glyph-name="cdotaccent" unicode="&#x10b;" horiz-adv-x="565" 
d="M304 -10q-113 0 -187.5 75t-74.5 185t74.5 185t187.5 75q76 0 136.5 -36t94.5 -98l-75 -42q-22 44 -62.5 70t-93.5 26q-77 0 -126 -52t-49 -128t49 -128t126 -52q53 0 93.5 26t62.5 70l75 -42q-34 -62 -94.5 -98t-136.5 -36zM304 596q-25 0 -42 17t-17 41t17 41.5
t42 17.5q24 0 41 -17.5t17 -41.5t-17 -41t-41 -17z" />
    <glyph glyph-name="Ccaron" unicode="&#x10c;" horiz-adv-x="755" 
d="M412 -12q-153 0 -260 106.5t-107 260.5t107 260.5t260 106.5q101 0 183 -46t131 -126l-78 -47q-38 61 -99 96t-137 35q-116 0 -194.5 -81t-78.5 -198t78.5 -198t194.5 -81q76 0 137 35t99 96l78 -47q-49 -80 -131 -126t-183 -46zM412 768l-166 87v77l166 -87l166 87v-77z
" />
    <glyph glyph-name="ccaron" unicode="&#x10d;" horiz-adv-x="565" 
d="M304 -10q-113 0 -187.5 75t-74.5 185t74.5 185t187.5 75q76 0 136.5 -36t94.5 -98l-75 -42q-22 44 -62.5 70t-93.5 26q-77 0 -126 -52t-49 -128t49 -128t126 -52q53 0 93.5 26t62.5 70l75 -42q-34 -62 -94.5 -98t-136.5 -36zM304 576l-159 101v79l159 -101l159 101v-79z
" />
    <glyph glyph-name="Dcaron" unicode="&#x10e;" horiz-adv-x="721" 
d="M94 0v710h204q163 0 270.5 -101t107.5 -254t-107.5 -254t-270.5 -101h-204zM187 87h111q127 0 205.5 75.5t78.5 192.5t-78.5 192.5t-205.5 75.5h-111v-536zM341 768l-166 87v77l166 -87l166 87v-77z" />
    <glyph glyph-name="dcaron" unicode="&#x10f;" horiz-adv-x="630" 
d="M287 -10q-104 0 -174.5 76t-70.5 184t70.5 184t174.5 76q55 0 102.5 -24.5t73.5 -62.5v327h86v-750h-86v77q-26 -38 -73.5 -62.5t-102.5 -24.5zM300 69q74 0 122 52t48 129t-48 129t-122 52q-75 0 -123 -52t-48 -129t48 -129t123 -52zM584 585l24 165h86l-50 -165h-60z
" />
    <glyph glyph-name="Dcroat" unicode="&#x110;" horiz-adv-x="729" 
d="M101 0v710h204q163 0 270.5 -101t107.5 -254t-107.5 -254t-270.5 -101h-204zM194 87h111q127 0 205.5 75.5t78.5 192.5t-78.5 192.5t-205.5 75.5h-111v-536zM28 319v82h326v-82h-326z" />
    <glyph glyph-name="dcroat" unicode="&#x111;" horiz-adv-x="630" 
d="M287 -10q-104 0 -174.5 76t-70.5 184t70.5 184t174.5 76q55 0 102.5 -24.5t73.5 -62.5v327h86v-750h-86v77q-26 -38 -73.5 -62.5t-102.5 -24.5zM300 69q74 0 122 52t48 129t-48 129t-122 52q-75 0 -123 -52t-48 -129t48 -129t123 -52zM620 577h-323v68h323v-68z" />
    <glyph glyph-name="Emacron" unicode="&#x112;" horiz-adv-x="557" 
d="M94 0v710h414v-88h-321v-215h261v-88h-261v-231h321v-88h-414zM140 805v69h322v-69h-322z" />
    <glyph glyph-name="emacron" unicode="&#x113;" horiz-adv-x="581" 
d="M301 -10q-115 0 -187 74t-72 186q0 111 73 185.5t187 74.5q101 0 169.5 -67.5t68.5 -183.5q0 -15 -1 -26h-410q2 -70 50.5 -117t122.5 -47q105 0 156 87l68 -47q-73 -119 -225 -119zM135 303h317q-10 60 -52.5 95.5t-100.5 35.5q-59 0 -105.5 -35.5t-58.5 -95.5zM142 641
v69h322v-69h-322z" />
    <glyph glyph-name="Ebreve" unicode="&#x114;" horiz-adv-x="557" 
d="M94 0v710h414v-88h-321v-215h261v-88h-261v-231h321v-88h-414zM301 759q-68 0 -113.5 43.5t-45.5 114.5h58q0 -47 28.5 -74t72.5 -27t72.5 27t28.5 74h58q0 -71 -45.5 -114.5t-113.5 -43.5z" />
    <glyph glyph-name="ebreve" unicode="&#x115;" horiz-adv-x="581" 
d="M301 -10q-115 0 -187 74t-72 186q0 111 73 185.5t187 74.5q101 0 169.5 -67.5t68.5 -183.5q0 -15 -1 -26h-410q2 -70 50.5 -117t122.5 -47q105 0 156 87l68 -47q-73 -119 -225 -119zM135 303h317q-10 60 -52.5 95.5t-100.5 35.5q-59 0 -105.5 -35.5t-58.5 -95.5zM303 578
q-68 0 -113.5 44t-45.5 115v13h58v-13q0 -48 28.5 -74.5t72.5 -26.5t72.5 26.5t28.5 74.5v13h58v-13q0 -71 -45.5 -115t-113.5 -44z" />
    <glyph glyph-name="Edotaccent" unicode="&#x116;" horiz-adv-x="557" 
d="M94 0v710h414v-88h-321v-215h261v-88h-261v-231h321v-88h-414zM301 785q-25 0 -42 17t-17 41t17 41.5t42 17.5q24 0 41 -17.5t17 -41.5t-17 -41t-41 -17z" />
    <glyph glyph-name="edotaccent" unicode="&#x117;" horiz-adv-x="581" 
d="M301 -10q-115 0 -187 74t-72 186q0 111 73 185.5t187 74.5q101 0 169.5 -67.5t68.5 -183.5q0 -15 -1 -26h-410q2 -70 50.5 -117t122.5 -47q105 0 156 87l68 -47q-73 -119 -225 -119zM135 303h317q-10 60 -52.5 95.5t-100.5 35.5q-59 0 -105.5 -35.5t-58.5 -95.5zM303 596
q-25 0 -42 17t-17 41t17 41.5t42 17.5q24 0 41 -17.5t17 -41.5t-17 -41t-41 -17z" />
    <glyph glyph-name="Eogonek" unicode="&#x118;" horiz-adv-x="557" 
d="M94 0v710h414v-88h-321v-215h261v-88h-261v-231h321v-88h-414zM427 -219q-40 0 -67.5 25t-27.5 64q0 28 14.5 54.5t29.5 41.5t39 34h93q-92 -57 -92 -112q0 -33 36 -33q28 0 56 22v-70q-29 -26 -81 -26z" />
    <glyph glyph-name="eogonek" unicode="&#x119;" horiz-adv-x="581" 
d="M448 -219q-46 0 -77.5 28.5t-31.5 72.5q0 57 52 121q-36 -13 -90 -13q-115 0 -187 74t-72 186q0 111 73 185.5t187 74.5q101 0 169.5 -67.5t68.5 -183.5q0 -15 -1 -26h-410q2 -70 50.5 -117t122.5 -47q105 0 156 87l68 -47q-23 -32 -28 -39q-81 -107 -81 -169
q0 -23 15 -38t39 -15q27 0 55 22v-63q-29 -26 -78 -26zM135 303h317q-10 60 -52.5 95.5t-100.5 35.5q-59 0 -105.5 -35.5t-58.5 -95.5z" />
    <glyph glyph-name="Ecaron" unicode="&#x11a;" horiz-adv-x="557" 
d="M94 0v710h414v-88h-321v-215h261v-88h-261v-231h321v-88h-414zM301 768l-166 87v77l166 -87l166 87v-77z" />
    <glyph glyph-name="ecaron" unicode="&#x11b;" horiz-adv-x="581" 
d="M301 -10q-115 0 -187 74t-72 186q0 111 73 185.5t187 74.5q101 0 169.5 -67.5t68.5 -183.5q0 -15 -1 -26h-410q2 -70 50.5 -117t122.5 -47q105 0 156 87l68 -47q-73 -119 -225 -119zM135 303h317q-10 60 -52.5 95.5t-100.5 35.5q-59 0 -105.5 -35.5t-58.5 -95.5zM303 576
l-159 101v79l159 -101l159 101v-79z" />
    <glyph glyph-name="Gcircumflex" unicode="&#x11c;" horiz-adv-x="765" 
d="M428 -12q-167 0 -274.5 105t-107.5 262q0 155 106 261t264 106q163 0 267 -99l-62 -67q-85 78 -205 78t-198.5 -80.5t-78.5 -198.5q0 -120 79.5 -199.5t209.5 -79.5q122 0 189 53v190h-201v87h291v-318q-47 -49 -121 -74.5t-158 -25.5zM251 768v77l166 87l166 -87v-77
l-166 87z" />
    <glyph glyph-name="gcircumflex" unicode="&#x11d;" horiz-adv-x="628" 
d="M299 81q75 0 122 49.5t47 125.5t-47.5 125.5t-121.5 49.5t-121.5 -49.5t-47.5 -125.5t47 -125.5t122 -49.5zM294 -219q-77 0 -139 28.5t-96 73.5l60 60q66 -84 175 -84q70 0 118.5 44t48.5 129v57q-27 -40 -73 -64t-101 -24q-105 0 -175 73.5t-70 181.5q0 107 70.5 180.5
t174.5 73.5q55 0 101 -24t73 -63v77h86v-471q0 -121 -70.5 -184.5t-182.5 -63.5zM323 756l159 -101v-79l-159 101l-159 -101v79z" />
    <glyph glyph-name="Gbreve" unicode="&#x11e;" horiz-adv-x="765" 
d="M428 -12q-167 0 -274.5 105t-107.5 262q0 155 106 261t264 106q163 0 267 -99l-62 -67q-85 78 -205 78t-198.5 -80.5t-78.5 -198.5q0 -120 79.5 -199.5t209.5 -79.5q122 0 189 53v190h-201v87h291v-318q-47 -49 -121 -74.5t-158 -25.5zM417 759q-68 0 -113.5 43.5
t-45.5 114.5h58q0 -47 28.5 -74t72.5 -27t72.5 27t28.5 74h58q0 -71 -45.5 -114.5t-113.5 -43.5z" />
    <glyph glyph-name="gbreve" unicode="&#x11f;" horiz-adv-x="628" 
d="M299 81q75 0 122 49.5t47 125.5t-47.5 125.5t-121.5 49.5t-121.5 -49.5t-47.5 -125.5t47 -125.5t122 -49.5zM294 -219q-77 0 -139 28.5t-96 73.5l60 60q66 -84 175 -84q70 0 118.5 44t48.5 129v57q-27 -40 -73 -64t-101 -24q-105 0 -175 73.5t-70 181.5q0 107 70.5 180.5
t174.5 73.5q55 0 101 -24t73 -63v77h86v-471q0 -121 -70.5 -184.5t-182.5 -63.5zM323 578q-68 0 -113.5 44t-45.5 115v13h58v-13q0 -48 28.5 -74.5t72.5 -26.5t72.5 26.5t28.5 74.5v13h58v-13q0 -71 -45.5 -115t-113.5 -44z" />
    <glyph glyph-name="Gdotaccent" unicode="&#x120;" horiz-adv-x="765" 
d="M428 -12q-167 0 -274.5 105t-107.5 262q0 155 106 261t264 106q163 0 267 -99l-62 -67q-85 78 -205 78t-198.5 -80.5t-78.5 -198.5q0 -120 79.5 -199.5t209.5 -79.5q122 0 189 53v190h-201v87h291v-318q-47 -49 -121 -74.5t-158 -25.5zM417 785q-25 0 -42 17t-17 41
t17 41.5t42 17.5q24 0 41 -17.5t17 -41.5t-17 -41t-41 -17z" />
    <glyph glyph-name="gdotaccent" unicode="&#x121;" horiz-adv-x="628" 
d="M299 81q75 0 122 49.5t47 125.5t-47.5 125.5t-121.5 49.5t-121.5 -49.5t-47.5 -125.5t47 -125.5t122 -49.5zM294 -219q-77 0 -139 28.5t-96 73.5l60 60q66 -84 175 -84q70 0 118.5 44t48.5 129v57q-27 -40 -73 -64t-101 -24q-105 0 -175 73.5t-70 181.5q0 107 70.5 180.5
t174.5 73.5q55 0 101 -24t73 -63v77h86v-471q0 -121 -70.5 -184.5t-182.5 -63.5zM323 596q-25 0 -42 17t-17 41t17 41.5t42 17.5q24 0 41 -17.5t17 -41.5t-17 -41t-41 -17z" />
    <glyph glyph-name="uni0122" unicode="&#x122;" horiz-adv-x="765" 
d="M428 -12q-167 0 -274.5 105t-107.5 262q0 155 106 261t264 106q163 0 267 -99l-62 -67q-85 78 -205 78t-198.5 -80.5t-78.5 -198.5q0 -120 79.5 -199.5t209.5 -79.5q122 0 189 53v190h-201v87h291v-318q-47 -49 -121 -74.5t-158 -25.5zM355 -269l36 85q-32 19 -32 52
q0 24 17 41.5t41 17.5t41 -17.5t17 -41.5q0 -18 -11 -35l-64 -102h-45z" />
    <glyph glyph-name="uni0123" unicode="&#x123;" horiz-adv-x="628" 
d="M299 81q75 0 122 49.5t47 125.5t-47.5 125.5t-121.5 49.5t-121.5 -49.5t-47.5 -125.5t47 -125.5t122 -49.5zM294 -219q-77 0 -139 28.5t-96 73.5l60 60q66 -84 175 -84q70 0 118.5 44t48.5 129v57q-27 -40 -73 -64t-101 -24q-105 0 -175 73.5t-70 181.5q0 107 70.5 180.5
t174.5 73.5q55 0 101 -24t73 -63v77h86v-471q0 -121 -70.5 -184.5t-182.5 -63.5zM323 596q-24 0 -41 17.5t-17 41.5q0 20 11 34l64 103h45l-36 -85q32 -19 32 -52q0 -24 -17 -41.5t-41 -17.5z" />
    <glyph glyph-name="Hcircumflex" unicode="&#x124;" horiz-adv-x="763" 
d="M94 0v710h93v-303h389v303h93v-710h-93v320h-389v-320h-93zM215 768v77l166 87l166 -87v-77l-166 87z" />
    <glyph glyph-name="hcircumflex" unicode="&#x125;" horiz-adv-x="589" 
d="M167 0h-86v750h86v-327q51 87 159 87q85 0 137 -55t52 -147v-308h-85v295q0 63 -32 99.5t-86 36.5q-62 0 -103.5 -49t-41.5 -134v-248zM135 768v77l166 87l166 -87v-77l-166 87z" />
    <glyph glyph-name="Hbar" unicode="&#x126;" horiz-adv-x="776" 
d="M101 0v710h93v-303h389v303h93v-710h-93v320h-389v-320h-93zM28 523v72h721v-72h-721z" />
    <glyph glyph-name="hbar" unicode="&#x127;" horiz-adv-x="589" 
d="M167 0h-86v750h86v-327q51 87 159 87q85 0 137 -55t52 -147v-308h-85v295q0 63 -32 99.5t-86 36.5q-62 0 -103.5 -49t-41.5 -134v-248zM334 577h-323v68h323v-68z" />
    <glyph glyph-name="Itilde" unicode="&#x128;" horiz-adv-x="281" 
d="M94 0v710h93v-710h-93zM-32 786l3 18q8 43 37 69t69 26q29 0 72 -22t57 -22q32 0 43 44h66l-4 -19q-8 -43 -36.5 -68.5t-69.5 -25.5q-29 0 -72 22t-56 22q-32 0 -44 -44h-65z" />
    <glyph glyph-name="itilde" unicode="&#x129;" horiz-adv-x="249" 
d="M81 0v500h86v-500h-86zM-50 593l3 18q8 43 37 69t69 26q29 0 72.5 -22t56.5 -22q32 0 43 44h66l-3 -18q-8 -43 -37 -69t-69 -26q-29 0 -72.5 22t-56.5 22q-32 0 -43 -44h-66z" />
    <glyph glyph-name="Imacron" unicode="&#x12a;" horiz-adv-x="281" 
d="M94 0v710h93v-710h-93zM-20 805v69h322v-69h-322z" />
    <glyph glyph-name="imacron" unicode="&#x12b;" horiz-adv-x="249" 
d="M81 0v500h86v-500h-86zM-37 641v69h322v-69h-322z" />
    <glyph glyph-name="Ibreve" unicode="&#x12c;" horiz-adv-x="281" 
d="M94 0v710h93v-710h-93zM141 759q-68 0 -113.5 43.5t-45.5 114.5h58q0 -47 28.5 -74t72.5 -27t72.5 27t28.5 74h58q0 -71 -45.5 -114.5t-113.5 -43.5z" />
    <glyph glyph-name="ibreve" unicode="&#x12d;" horiz-adv-x="249" 
d="M81 0v500h86v-500h-86zM124 578q-68 0 -113.5 44t-45.5 115v13h58v-13q0 -48 28.5 -74.5t72.5 -26.5t72.5 26.5t28.5 74.5v13h58v-13q0 -71 -45.5 -115t-113.5 -44z" />
    <glyph glyph-name="Iogonek" unicode="&#x12e;" horiz-adv-x="281" 
d="M94 0v710h93v-710h-93zM106 -219q-40 0 -67.5 25t-27.5 64q0 28 14.5 54.5t29.5 41.5t39 34h93q-92 -57 -92 -112q0 -33 36 -33q28 0 56 22v-70q-29 -26 -81 -26z" />
    <glyph glyph-name="iogonek" unicode="&#x12f;" horiz-adv-x="249" 
d="M125 634q-26 0 -44 17.5t-18 43.5q0 25 18 43t44 18t43 -18t17 -43q0 -26 -17 -43.5t-43 -17.5zM81 0v500h86v-500h-86zM90 -219q-40 0 -67 24.5t-27 62.5q0 30 16 58t29.5 40.5t39.5 33.5h86q-93 -58 -93 -115q0 -37 38 -37q25 0 55 22v-63q-28 -26 -77 -26z" />
    <glyph glyph-name="Idotaccent" unicode="&#x130;" horiz-adv-x="281" 
d="M94 0v710h93v-710h-93zM141 785q-25 0 -42 17t-17 41t17 41.5t42 17.5q24 0 41 -17.5t17 -41.5t-17 -41t-41 -17z" />
    <glyph glyph-name="dotlessi" unicode="&#x131;" horiz-adv-x="249" 
d="M81 0v500h86v-500h-86z" />
    <glyph glyph-name="Jcircumflex" unicode="&#x134;" horiz-adv-x="529" 
d="M233 -12q-91 0 -151 53.5t-60 148.5h92q0 -54 34.5 -85t83.5 -31q51 0 84 32t33 100v504h92v-514q0 -105 -59 -156.5t-149 -51.5zM229 768v77l166 87l166 -87v-77l-166 87z" />
    <glyph glyph-name="jcircumflex" unicode="&#x135;" horiz-adv-x="257" 
d="M175 500v-566q0 -75 -42 -114t-109 -39q-23 0 -41 3v77q16 -2 29 -2q77 0 77 85v556h86zM132 756l159 -101v-79l-159 101l-159 -101v79z" />
    <glyph glyph-name="uni0136" unicode="&#x136;" horiz-adv-x="671" 
d="M563 0l-377 338v-338h-92v710h92v-308l310 308h121l-338 -338l415 -372h-131zM312 -269l36 85q-32 19 -32 52q0 24 17 41.5t41 17.5t41 -17.5t17 -41.5q0 -18 -11 -35l-64 -102h-45z" />
    <glyph glyph-name="uni0137" unicode="&#x137;" horiz-adv-x="539" 
d="M438 0l-271 250v-250h-86v750h86v-445l218 195h114l-246 -221l301 -279h-116zM239 -269l36 85q-32 19 -32 52q0 24 17 41.5t41 17.5t41 -17.5t17 -41.5q0 -18 -11 -35l-64 -102h-45z" />
    <glyph glyph-name="Lacute" unicode="&#x139;" horiz-adv-x="548" 
d="M94 0v710h93v-622h343v-88h-436zM113 770l78 157h108l-114 -157h-72z" />
    <glyph glyph-name="lacute" unicode="&#x13a;" horiz-adv-x="249" 
d="M81 0v750h86v-750h-86zM94 810l93 190h110l-134 -190h-69z" />
    <glyph glyph-name="uni013B" unicode="&#x13b;" horiz-adv-x="548" 
d="M94 0v710h93v-622h343v-88h-436zM244 -269l36 85q-32 19 -32 52q0 24 17 41.5t41 17.5t41 -17.5t17 -41.5q0 -18 -11 -35l-64 -102h-45z" />
    <glyph glyph-name="uni013C" unicode="&#x13c;" horiz-adv-x="249" 
d="M81 0v750h86v-750h-86zM62 -269l36 85q-32 19 -32 52q0 24 17 41.5t41 17.5t41 -17.5t17 -41.5q0 -18 -11 -35l-64 -102h-45z" />
    <glyph glyph-name="Lcaron" unicode="&#x13d;" horiz-adv-x="548" 
d="M94 0v710h93v-622h343v-88h-436zM287 585l24 165h86l-50 -165h-60z" />
    <glyph glyph-name="lcaron" unicode="&#x13e;" horiz-adv-x="249" 
d="M81 0v750h86v-750h-86zM204 585l24 165h86l-50 -165h-60z" />
    <glyph glyph-name="Ldot" unicode="&#x13f;" horiz-adv-x="553" 
d="M94 0v710h93v-622h343v-88h-436zM417 341q-25 0 -42 17t-17 41t17 41.5t42 17.5q24 0 41 -17.5t17 -41.5t-17 -41t-41 -17z" />
    <glyph glyph-name="ldot" unicode="&#x140;" horiz-adv-x="383" 
d="M81 0v750h86v-750h-86zM317 317q-25 0 -42 17t-17 41t17 41.5t42 17.5q24 0 41 -17.5t17 -41.5t-17 -41t-41 -17z" />
    <glyph glyph-name="Lslash" unicode="&#x141;" horiz-adv-x="567" 
d="M113 0v710h93v-622h343v-88h-436zM365 423l-325 -210v84l325 210v-84z" />
    <glyph glyph-name="lslash" unicode="&#x142;" horiz-adv-x="319" 
d="M118 0v750h86v-750h-86zM283 414l-244 -157v78l244 156v-77z" />
    <glyph glyph-name="Nacute" unicode="&#x143;" horiz-adv-x="794" 
d="M699 0h-80l-432 553v-553h-93v710h81l432 -553v553h92v-710zM365 770l78 157h108l-114 -157h-72z" />
    <glyph glyph-name="nacute" unicode="&#x144;" horiz-adv-x="589" 
d="M81 0v500h86v-77q51 87 159 87q85 0 137 -55t52 -147v-308h-85v295q0 63 -32 99.5t-86 36.5q-62 0 -103.5 -49t-41.5 -134v-248h-86zM268 560l93 190h110l-134 -190h-69z" />
    <glyph glyph-name="uni0145" unicode="&#x145;" horiz-adv-x="794" 
d="M699 0h-80l-432 553v-553h-93v710h81l432 -553v553h92v-710zM338 -269l36 85q-32 19 -32 52q0 24 17 41.5t41 17.5t41 -17.5t17 -41.5q0 -18 -11 -35l-64 -102h-45z" />
    <glyph glyph-name="uni0146" unicode="&#x146;" horiz-adv-x="589" 
d="M81 0v500h86v-77q51 87 159 87q85 0 137 -55t52 -147v-308h-85v295q0 63 -32 99.5t-86 36.5q-62 0 -103.5 -49t-41.5 -134v-248h-86zM236 -269l36 85q-32 19 -32 52q0 24 17 41.5t41 17.5t41 -17.5t17 -41.5q0 -18 -11 -35l-64 -102h-45z" />
    <glyph glyph-name="Ncaron" unicode="&#x147;" horiz-adv-x="794" 
d="M699 0h-80l-432 553v-553h-93v710h81l432 -553v553h92v-710zM393 768l-166 87v77l166 -87l166 87v-77z" />
    <glyph glyph-name="ncaron" unicode="&#x148;" horiz-adv-x="589" 
d="M81 0v500h86v-77q51 87 159 87q85 0 137 -55t52 -147v-308h-85v295q0 63 -32 99.5t-86 36.5q-62 0 -103.5 -49t-41.5 -134v-248h-86zM298 576l-159 101v79l159 -101l159 101v-79z" />
    <glyph glyph-name="Eng" unicode="&#x14a;" horiz-adv-x="794" 
d="M699 710v-776q0 -75 -42 -114t-111 -39q-43 0 -77 13v81q25 -11 63 -11t56.5 19.5t18.5 65.5v66l-420 538v-553h-93v710h81l432 -553v553h92z" />
    <glyph glyph-name="eng" unicode="&#x14b;" horiz-adv-x="589" 
d="M81 0v500h86v-77q51 87 159 87q85 0 137 -55t52 -147v-369q0 -75 -42 -114t-111 -39q-30 0 -54 6v77q16 -4 38 -4q43 0 63.5 19t20.5 66v345q0 63 -32 99.5t-86 36.5q-62 0 -103.5 -49t-41.5 -134v-248h-86z" />
    <glyph glyph-name="Omacron" unicode="&#x14c;" horiz-adv-x="825" 
d="M412 76q117 0 195.5 81t78.5 198t-78.5 198t-195.5 81q-116 0 -194.5 -81t-78.5 -198t78.5 -198t194.5 -81zM412 -12q-153 0 -260 106.5t-107 260.5t107 260.5t260 106.5q154 0 260.5 -106.5t106.5 -260.5t-106.5 -260.5t-260.5 -106.5zM251 805v69h322v-69h-322z" />
    <glyph glyph-name="omacron" unicode="&#x14d;" horiz-adv-x="606" 
d="M303 -10q-113 0 -187.5 75.5t-74.5 184.5t74.5 184.5t187.5 75.5q112 0 186.5 -75.5t74.5 -184.5t-74.5 -184.5t-186.5 -75.5zM303 70q77 0 125 52t48 128t-48 128t-125 52t-125.5 -52t-48.5 -128t48.5 -128t125.5 -52zM142 641v69h322v-69h-322z" />
    <glyph glyph-name="Obreve" unicode="&#x14e;" horiz-adv-x="825" 
d="M412 76q117 0 195.5 81t78.5 198t-78.5 198t-195.5 81q-116 0 -194.5 -81t-78.5 -198t78.5 -198t194.5 -81zM412 -12q-153 0 -260 106.5t-107 260.5t107 260.5t260 106.5q154 0 260.5 -106.5t106.5 -260.5t-106.5 -260.5t-260.5 -106.5zM412 759q-68 0 -113.5 43.5
t-45.5 114.5h58q0 -47 28.5 -74t72.5 -27t72.5 27t28.5 74h58q0 -71 -45.5 -114.5t-113.5 -43.5z" />
    <glyph glyph-name="obreve" unicode="&#x14f;" horiz-adv-x="606" 
d="M303 -10q-113 0 -187.5 75.5t-74.5 184.5t74.5 184.5t187.5 75.5q112 0 186.5 -75.5t74.5 -184.5t-74.5 -184.5t-186.5 -75.5zM303 70q77 0 125 52t48 128t-48 128t-125 52t-125.5 -52t-48.5 -128t48.5 -128t125.5 -52zM303 578q-68 0 -113.5 44t-45.5 115v13h58v-13
q0 -48 28.5 -74.5t72.5 -26.5t72.5 26.5t28.5 74.5v13h58v-13q0 -71 -45.5 -115t-113.5 -44z" />
    <glyph glyph-name="Ohungarumlaut" unicode="&#x150;" horiz-adv-x="825" 
d="M412 76q117 0 195.5 81t78.5 198t-78.5 198t-195.5 81q-116 0 -194.5 -81t-78.5 -198t78.5 -198t194.5 -81zM412 -12q-153 0 -260 106.5t-107 260.5t107 260.5t260 106.5q154 0 260.5 -106.5t106.5 -260.5t-106.5 -260.5t-260.5 -106.5zM467 770l69 157h99l-109 -157h-59
zM300 770l69 157h99l-109 -157h-59z" />
    <glyph glyph-name="ohungarumlaut" unicode="&#x151;" horiz-adv-x="606" 
d="M303 -10q-113 0 -187.5 75.5t-74.5 184.5t74.5 184.5t187.5 75.5q112 0 186.5 -75.5t74.5 -184.5t-74.5 -184.5t-186.5 -75.5zM303 70q77 0 125 52t48 128t-48 128t-125 52t-125.5 -52t-48.5 -128t48.5 -128t125.5 -52zM355 560l69 190h99l-109 -190h-59zM188 560l69 190
h99l-109 -190h-59z" />
    <glyph glyph-name="OE" unicode="&#x152;" horiz-adv-x="1149" 
d="M412 76q117 0 195.5 81t78.5 198t-78.5 198t-195.5 81q-116 0 -194.5 -81t-78.5 -198t78.5 -198t194.5 -81zM686 0v118q-100 -130 -274 -130q-153 0 -260 106.5t-107 260.5t107 260.5t260 106.5q174 0 274 -130v118h414v-88h-322v-215h262v-88h-262v-231h322v-88h-414z
" />
    <glyph glyph-name="oe" unicode="&#x153;" horiz-adv-x="1015" 
d="M735 -10q-71 0 -126.5 29.5t-90.5 81.5q-77 -111 -215 -111q-113 0 -187.5 75.5t-74.5 184.5t74.5 184.5t187.5 75.5q68 0 124 -30t92 -82q77 112 217 112q101 0 169.5 -67.5t68.5 -183.5q0 -15 -1 -26h-410q2 -70 50.5 -117t122.5 -47q105 0 156 87l68 -47
q-73 -119 -225 -119zM303 70q77 0 125 52t48 128t-48 128t-125 52t-125.5 -52t-48.5 -128t48.5 -128t125.5 -52zM733 434q-59 0 -105.5 -35.5t-58.5 -95.5h317q-10 60 -52.5 95.5t-100.5 35.5z" />
    <glyph glyph-name="Racute" unicode="&#x154;" horiz-adv-x="635" 
d="M94 0v710h242q98 0 155 -53.5t57 -142.5q0 -78 -46.5 -128t-129.5 -62l274 -324h-117l-273 323h-69v-323h-93zM187 406h138q62 0 96 27.5t34 80.5t-34 81.5t-96 28.5h-138v-218zM272 770l78 157h108l-114 -157h-72z" />
    <glyph glyph-name="racute" unicode="&#x155;" horiz-adv-x="366" 
d="M81 0v500h86v-97q14 46 54.5 74t85.5 28q22 0 39 -4v-89q-18 8 -47 8q-52 0 -92 -45t-40 -127v-248h-86zM183 560l93 190h110l-134 -190h-69z" />
    <glyph glyph-name="uni0156" unicode="&#x156;" horiz-adv-x="635" 
d="M94 0v710h242q98 0 155 -53.5t57 -142.5q0 -78 -46.5 -128t-129.5 -62l274 -324h-117l-273 323h-69v-323h-93zM187 406h138q62 0 96 27.5t34 80.5t-34 81.5t-96 28.5h-138v-218zM296 -269l36 85q-32 19 -32 52q0 24 17 41.5t41 17.5t41 -17.5t17 -41.5q0 -18 -11 -35
l-64 -102h-45z" />
    <glyph glyph-name="uni0157" unicode="&#x157;" horiz-adv-x="366" 
d="M81 0v500h86v-97q14 46 54.5 74t85.5 28q22 0 39 -4v-89q-18 8 -47 8q-52 0 -92 -45t-40 -127v-248h-86zM63 -269l36 85q-32 19 -32 52q0 24 17 41.5t41 17.5t41 -17.5t17 -41.5q0 -18 -11 -35l-64 -102h-45z" />
    <glyph glyph-name="Rcaron" unicode="&#x158;" horiz-adv-x="635" 
d="M94 0v710h242q98 0 155 -53.5t57 -142.5q0 -78 -46.5 -128t-129.5 -62l274 -324h-117l-273 323h-69v-323h-93zM187 406h138q62 0 96 27.5t34 80.5t-34 81.5t-96 28.5h-138v-218zM299 768l-166 87v77l166 -87l166 87v-77z" />
    <glyph glyph-name="rcaron" unicode="&#x159;" horiz-adv-x="366" 
d="M81 0v500h86v-97q14 46 54.5 74t85.5 28q22 0 39 -4v-89q-18 8 -47 8q-52 0 -92 -45t-40 -127v-248h-86zM213 576l-159 101v79l159 -101l159 101v-79z" />
    <glyph glyph-name="Sacute" unicode="&#x15a;" horiz-adv-x="554" 
d="M285 -12q-85 0 -152.5 36t-96.5 92l75 56q63 -97 176 -97q57 0 94 28.5t37 77.5q0 82 -102 120l-94 36q-84 31 -122.5 77.5t-38.5 118.5q0 86 62.5 137.5t159.5 51.5q65 0 119 -26.5t88 -70.5l-68 -60q-59 70 -141 70q-54 0 -91 -27.5t-37 -70.5t25 -68t82 -46l86 -33
q82 -31 123.5 -80t41.5 -125q0 -89 -63.5 -143t-162.5 -54zM256 770l78 157h108l-114 -157h-72z" />
    <glyph glyph-name="sacute" unicode="&#x15b;" horiz-adv-x="450" 
d="M232 -10q-69 0 -121 29.5t-75 86.5l70 39q14 -37 49 -58t78 -21q37 0 62 18t25 49q0 27 -19.5 45t-67.5 33l-50 16q-125 36 -125 146q0 62 49.5 99.5t122.5 37.5q114 0 165 -87l-64 -44q-41 57 -104 57q-34 0 -58.5 -16.5t-24.5 -43.5q0 -25 15.5 -42.5t55.5 -29.5
l55 -17q136 -42 136 -147q0 -70 -48.5 -110t-125.5 -40zM202 560l93 190h110l-134 -190h-69z" />
    <glyph glyph-name="Scircumflex" unicode="&#x15c;" horiz-adv-x="554" 
d="M285 -12q-85 0 -152.5 36t-96.5 92l75 56q63 -97 176 -97q57 0 94 28.5t37 77.5q0 82 -102 120l-94 36q-84 31 -122.5 77.5t-38.5 118.5q0 86 62.5 137.5t159.5 51.5q65 0 119 -26.5t88 -70.5l-68 -60q-59 70 -141 70q-54 0 -91 -27.5t-37 -70.5t25 -68t82 -46l86 -33
q82 -31 123.5 -80t41.5 -125q0 -89 -63.5 -143t-162.5 -54zM118 768v77l166 87l166 -87v-77l-166 87z" />
    <glyph glyph-name="scircumflex" unicode="&#x15d;" horiz-adv-x="450" 
d="M232 -10q-69 0 -121 29.5t-75 86.5l70 39q14 -37 49 -58t78 -21q37 0 62 18t25 49q0 27 -19.5 45t-67.5 33l-50 16q-125 36 -125 146q0 62 49.5 99.5t122.5 37.5q114 0 165 -87l-64 -44q-41 57 -104 57q-34 0 -58.5 -16.5t-24.5 -43.5q0 -25 15.5 -42.5t55.5 -29.5
l55 -17q136 -42 136 -147q0 -70 -48.5 -110t-125.5 -40zM232 756l159 -101v-79l-159 101l-159 -101v79z" />
    <glyph glyph-name="Scedilla" unicode="&#x15e;" horiz-adv-x="554" 
d="M285 -12q-85 0 -152.5 36t-96.5 92l75 56q63 -97 176 -97q57 0 94 28.5t37 77.5q0 82 -102 120l-94 36q-84 31 -122.5 77.5t-38.5 118.5q0 86 62.5 137.5t159.5 51.5q65 0 119 -26.5t88 -70.5l-68 -60q-59 70 -141 70q-54 0 -91 -27.5t-37 -70.5t25 -68t82 -46l86 -33
q82 -31 123.5 -80t41.5 -125q0 -89 -63.5 -143t-162.5 -54zM178 -204v55q30 -17 76 -17q29 0 48.5 10t19.5 31q0 30 -46 30q-24 0 -45 -10l-32 21l52 87h55l-34 -56q15 7 40 7q36 0 58 -20.5t22 -55.5q0 -43 -37 -70t-92 -27q-53 0 -85 15z" />
    <glyph glyph-name="scedilla" unicode="&#x15f;" horiz-adv-x="450" 
d="M232 -10q-69 0 -121 29.5t-75 86.5l70 39q14 -37 49 -58t78 -21q37 0 62 18t25 49q0 27 -19.5 45t-67.5 33l-50 16q-125 36 -125 146q0 62 49.5 99.5t122.5 37.5q114 0 165 -87l-64 -44q-41 57 -104 57q-34 0 -58.5 -16.5t-24.5 -43.5q0 -25 15.5 -42.5t55.5 -29.5
l55 -17q136 -42 136 -147q0 -70 -48.5 -110t-125.5 -40zM124 -204v55q30 -17 76 -17q29 0 48.5 10.5t19.5 30.5q0 30 -47 30q-23 0 -44 -10l-33 21l53 87h54l-34 -56q15 7 40 7q36 0 58.5 -20.5t22.5 -55.5q0 -43 -37.5 -70t-92.5 -27q-53 0 -84 15z" />
    <glyph glyph-name="Scaron" unicode="&#x160;" horiz-adv-x="554" 
d="M285 -12q-85 0 -152.5 36t-96.5 92l75 56q63 -97 176 -97q57 0 94 28.5t37 77.5q0 82 -102 120l-94 36q-84 31 -122.5 77.5t-38.5 118.5q0 86 62.5 137.5t159.5 51.5q65 0 119 -26.5t88 -70.5l-68 -60q-59 70 -141 70q-54 0 -91 -27.5t-37 -70.5t25 -68t82 -46l86 -33
q82 -31 123.5 -80t41.5 -125q0 -89 -63.5 -143t-162.5 -54zM284 768l-166 87v77l166 -87l166 87v-77z" />
    <glyph glyph-name="scaron" unicode="&#x161;" horiz-adv-x="450" 
d="M232 -10q-69 0 -121 29.5t-75 86.5l70 39q14 -37 49 -58t78 -21q37 0 62 18t25 49q0 27 -19.5 45t-67.5 33l-50 16q-125 36 -125 146q0 62 49.5 99.5t122.5 37.5q114 0 165 -87l-64 -44q-41 57 -104 57q-34 0 -58.5 -16.5t-24.5 -43.5q0 -25 15.5 -42.5t55.5 -29.5
l55 -17q136 -42 136 -147q0 -70 -48.5 -110t-125.5 -40zM232 576l-159 101v79l159 -101l159 101v-79z" />
    <glyph glyph-name="uni0162" unicode="&#x162;" horiz-adv-x="567" 
d="M238 0v622h-221v88h533v-88h-221v-622h-91zM221 -269l36 85q-32 19 -32 52q0 24 17 41.5t41 17.5t41 -17.5t17 -41.5q0 -18 -11 -35l-64 -102h-45z" />
    <glyph glyph-name="uni0163" unicode="&#x163;" horiz-adv-x="381" 
d="M275 -5q-69 0 -111 39t-42 114v273h-106v79h106v139h86v-139h144v-79h-144v-262q0 -47 20 -66t63 -19q38 0 61 10v-77q-36 -12 -77 -12zM178 -269l36 85q-32 19 -32 52q0 24 17 41.5t41 17.5t41 -17.5t17 -41.5q0 -18 -11 -35l-64 -102h-45z" />
    <glyph glyph-name="Tcaron" unicode="&#x164;" horiz-adv-x="567" 
d="M238 0v622h-221v88h533v-88h-221v-622h-91zM283 768l-166 87v77l166 -87l166 87v-77z" />
    <glyph glyph-name="tcaron" unicode="&#x165;" horiz-adv-x="381" 
d="M275 -5q-69 0 -111 39t-42 114v273h-106v79h106v139h86v-139h144v-79h-144v-262q0 -47 20 -66t63 -19q38 0 61 10v-77q-36 -12 -77 -12zM243 545l24 165h86l-50 -165h-60z" />
    <glyph glyph-name="Tbar" unicode="&#x166;" horiz-adv-x="593" 
d="M251 0v622h-221v88h533v-88h-221v-622h-91zM94 324v81h405v-81h-405z" />
    <glyph glyph-name="tbar" unicode="&#x167;" horiz-adv-x="395" 
d="M284 -5q-69 0 -111 39t-42 114v273h-106v79h106v139h86v-139h144v-79h-144v-262q0 -47 20 -66t63 -19q38 0 61 10v-77q-36 -12 -77 -12zM24 266v68h337v-68h-337z" />
    <glyph glyph-name="Utilde" unicode="&#x168;" horiz-adv-x="726" 
d="M363 -12q-124 0 -201 78.5t-77 209.5v434h93v-436q0 -95 50 -146.5t135 -51.5t135 51.5t50 146.5v436h93v-434q0 -131 -77 -209.5t-201 -78.5zM190 786l3 18q8 43 37 69t69 26q29 0 72 -22t57 -22q32 0 43 44h66l-4 -19q-8 -43 -36.5 -68.5t-69.5 -25.5q-29 0 -72 22
t-56 22q-32 0 -44 -44h-65z" />
    <glyph glyph-name="utilde" unicode="&#x169;" horiz-adv-x="579" 
d="M258 -10q-82 0 -133 55.5t-51 147.5v307h86v-294q0 -63 30.5 -100t82.5 -37q60 0 99.5 49.5t39.5 133.5v248h86v-500h-86v77q-49 -87 -154 -87zM111 593l3 18q8 43 37 69t69 26q29 0 72.5 -22t56.5 -22q32 0 43 44h66l-3 -18q-8 -43 -37 -69t-69 -26q-29 0 -72.5 22
t-56.5 22q-32 0 -43 -44h-66z" />
    <glyph glyph-name="Umacron" unicode="&#x16a;" horiz-adv-x="726" 
d="M363 -12q-124 0 -201 78.5t-77 209.5v434h93v-436q0 -95 50 -146.5t135 -51.5t135 51.5t50 146.5v436h93v-434q0 -131 -77 -209.5t-201 -78.5zM202 805v69h322v-69h-322z" />
    <glyph glyph-name="umacron" unicode="&#x16b;" horiz-adv-x="579" 
d="M258 -10q-82 0 -133 55.5t-51 147.5v307h86v-294q0 -63 30.5 -100t82.5 -37q60 0 99.5 49.5t39.5 133.5v248h86v-500h-86v77q-49 -87 -154 -87zM124 641v69h322v-69h-322z" />
    <glyph glyph-name="Ubreve" unicode="&#x16c;" horiz-adv-x="726" 
d="M363 -12q-124 0 -201 78.5t-77 209.5v434h93v-436q0 -95 50 -146.5t135 -51.5t135 51.5t50 146.5v436h93v-434q0 -131 -77 -209.5t-201 -78.5zM363 759q-68 0 -113.5 43.5t-45.5 114.5h58q0 -47 28.5 -74t72.5 -27t72.5 27t28.5 74h58q0 -71 -45.5 -114.5t-113.5 -43.5z
" />
    <glyph glyph-name="ubreve" unicode="&#x16d;" horiz-adv-x="579" 
d="M258 -10q-82 0 -133 55.5t-51 147.5v307h86v-294q0 -63 30.5 -100t82.5 -37q60 0 99.5 49.5t39.5 133.5v248h86v-500h-86v77q-49 -87 -154 -87zM285 578q-68 0 -113.5 44t-45.5 115v13h58v-13q0 -48 28.5 -74.5t72.5 -26.5t72.5 26.5t28.5 74.5v13h58v-13
q0 -71 -45.5 -115t-113.5 -44z" />
    <glyph glyph-name="Uring" unicode="&#x16e;" horiz-adv-x="726" 
d="M363 -12q-124 0 -201 78.5t-77 209.5v434h93v-436q0 -95 50 -146.5t135 -51.5t135 51.5t50 146.5v436h93v-434q0 -131 -77 -209.5t-201 -78.5zM363 753q-50 0 -85.5 35t-35.5 85t35.5 85t85.5 35t86 -35.5t36 -84.5t-36 -84.5t-86 -35.5zM363 804q29 0 50 20t21 49
t-21 49.5t-50 20.5t-49 -20.5t-20 -49.5t20 -49t49 -20z" />
    <glyph glyph-name="uring" unicode="&#x16f;" horiz-adv-x="579" 
d="M258 -10q-82 0 -133 55.5t-51 147.5v307h86v-294q0 -63 30.5 -100t82.5 -37q60 0 99.5 49.5t39.5 133.5v248h86v-500h-86v77q-49 -87 -154 -87zM285 543q-50 0 -85.5 35t-35.5 85t35.5 85t85.5 35t86 -35.5t36 -84.5t-36 -84.5t-86 -35.5zM285 594q29 0 50 20t21 49
t-21 49.5t-50 20.5t-49 -20.5t-20 -49.5t20 -49t49 -20z" />
    <glyph glyph-name="Uhungarumlaut" unicode="&#x170;" horiz-adv-x="726" 
d="M363 -12q-124 0 -201 78.5t-77 209.5v434h93v-436q0 -95 50 -146.5t135 -51.5t135 51.5t50 146.5v436h93v-434q0 -131 -77 -209.5t-201 -78.5zM418 770l69 157h99l-109 -157h-59zM251 770l69 157h99l-109 -157h-59z" />
    <glyph glyph-name="uhungarumlaut" unicode="&#x171;" horiz-adv-x="579" 
d="M258 -10q-82 0 -133 55.5t-51 147.5v307h86v-294q0 -63 30.5 -100t82.5 -37q60 0 99.5 49.5t39.5 133.5v248h86v-500h-86v77q-49 -87 -154 -87zM337 560l69 190h99l-109 -190h-59zM170 560l69 190h99l-109 -190h-59z" />
    <glyph glyph-name="Uogonek" unicode="&#x172;" horiz-adv-x="726" 
d="M418 -219q-41 0 -68 25t-27 64q0 64 69 120q-24 -2 -28 -2q-125 0 -202 78t-77 210v434h93v-436q0 -95 50 -146.5t135 -51.5t135 51.5t50 146.5v436h93v-434q0 -146 -94 -226q-8 -6 -27.5 -22.5t-28.5 -24t-25 -22t-24 -24.5t-17.5 -22.5t-13.5 -23.5t-4 -22
q0 -34 36 -34q27 0 55 22v-70q-28 -26 -80 -26z" />
    <glyph glyph-name="uogonek" unicode="&#x173;" horiz-adv-x="579" 
d="M258 -10q-82 0 -133 55.5t-51 147.5v307h86v-294q0 -63 30.5 -100t82.5 -37q60 0 99.5 49.5t39.5 133.5v248h86v-500h-86v77q-49 -87 -154 -87zM420 -219q-40 0 -67 24.5t-27 62.5q0 30 16 58t29.5 40.5t39.5 33.5h86q-93 -58 -93 -115q0 -37 38 -37q25 0 55 22v-63
q-28 -26 -77 -26z" />
    <glyph glyph-name="Wcircumflex" unicode="&#x174;" horiz-adv-x="947" 
d="M647 0l-174 482l-173 -482h-83l-194 710h97l148 -554l205 566l205 -566l149 554h97l-194 -710h-83zM307 768v77l166 87l166 -87v-77l-166 87z" />
    <glyph glyph-name="wcircumflex" unicode="&#x175;" horiz-adv-x="763" 
d="M505 0l-124 359l-123 -359h-76l-170 500h90l121 -365l125 365h66l125 -365l121 365h91l-170 -500h-76zM381 756l159 -101v-79l-159 101l-159 -101v79z" />
    <glyph glyph-name="Ycircumflex" unicode="&#x176;" horiz-adv-x="674" 
d="M291 0v301l-276 409h111l211 -316l212 316h111l-277 -410v-300h-92zM171 768v77l166 87l166 -87v-77l-166 87z" />
    <glyph glyph-name="ycircumflex" unicode="&#x177;" horiz-adv-x="547" 
d="M214 -209h-96l109 235l-219 474h95l172 -380l171 380h96zM275 756l159 -101v-79l-159 101l-159 -101v79z" />
    <glyph glyph-name="Ydieresis" unicode="&#x178;" horiz-adv-x="674" 
d="M291 0v301l-276 409h111l211 -316l212 316h111l-277 -410v-300h-92zM225 785q-25 0 -42 17t-17 41t17 41.5t42 17.5q24 0 41 -17.5t17 -41.5t-17 -41t-41 -17zM450 785q-24 0 -41.5 17t-17.5 41t17.5 41.5t41.5 17.5t41 -17.5t17 -41.5t-17 -41t-41 -17z" />
    <glyph glyph-name="Zacute" unicode="&#x179;" horiz-adv-x="587" 
d="M34 0v62l385 560h-374v88h497v-62l-385 -560h395v-88h-518zM273 770l78 157h108l-114 -157h-72z" />
    <glyph glyph-name="zacute" unicode="&#x17a;" horiz-adv-x="484" 
d="M40 0v68l286 353h-282v79h393v-69l-286 -352h295v-79h-406zM210 560l93 190h110l-134 -190h-69z" />
    <glyph glyph-name="Zdotaccent" unicode="&#x17b;" horiz-adv-x="587" 
d="M34 0v62l385 560h-374v88h497v-62l-385 -560h395v-88h-518zM301 785q-25 0 -42 17t-17 41t17 41.5t42 17.5q24 0 41 -17.5t17 -41.5t-17 -41t-41 -17z" />
    <glyph glyph-name="zdotaccent" unicode="&#x17c;" horiz-adv-x="484" 
d="M40 0v68l286 353h-282v79h393v-69l-286 -352h295v-79h-406zM240 596q-25 0 -42 17t-17 41t17 41.5t42 17.5q24 0 41 -17.5t17 -41.5t-17 -41t-41 -17z" />
    <glyph glyph-name="Zcaron" unicode="&#x17d;" horiz-adv-x="587" 
d="M34 0v62l385 560h-374v88h497v-62l-385 -560h395v-88h-518zM301 768l-166 87v77l166 -87l166 87v-77z" />
    <glyph glyph-name="zcaron" unicode="&#x17e;" horiz-adv-x="484" 
d="M40 0v68l286 353h-282v79h393v-69l-286 -352h295v-79h-406zM240 576l-159 101v79l159 -101l159 101v-79z" />
    <glyph glyph-name="uni018F" unicode="&#x18f;" horiz-adv-x="814" 
d="M401 -12q-154 0 -260.5 106.5t-106.5 260.5v48h637q-16 101 -91.5 166t-179.5 65q-60 0 -115 -22.5t-92 -60.5l-63 64q51 50 122.5 78.5t148.5 28.5q154 0 260.5 -106t106.5 -261q0 -154 -106.5 -260.5t-260.5 -106.5zM401 76q108 0 183.5 69.5t87.5 174.5h-541
q10 -105 86.5 -174.5t183.5 -69.5z" />
    <glyph glyph-name="uni0218" unicode="&#x218;" horiz-adv-x="554" 
d="M285 -12q-85 0 -152.5 36t-96.5 92l75 56q63 -97 176 -97q57 0 94 28.5t37 77.5q0 82 -102 120l-94 36q-84 31 -122.5 77.5t-38.5 118.5q0 86 62.5 137.5t159.5 51.5q65 0 119 -26.5t88 -70.5l-68 -60q-59 70 -141 70q-54 0 -91 -27.5t-37 -70.5t25 -68t82 -46l86 -33
q82 -31 123.5 -80t41.5 -125q0 -89 -63.5 -143t-162.5 -54zM223 -269l36 85q-32 19 -32 52q0 24 17 41.5t41 17.5t41 -17.5t17 -41.5q0 -18 -11 -35l-64 -102h-45z" />
    <glyph glyph-name="uni0219" unicode="&#x219;" horiz-adv-x="450" 
d="M232 -10q-69 0 -121 29.5t-75 86.5l70 39q14 -37 49 -58t78 -21q37 0 62 18t25 49q0 27 -19.5 45t-67.5 33l-50 16q-125 36 -125 146q0 62 49.5 99.5t122.5 37.5q114 0 165 -87l-64 -44q-41 57 -104 57q-34 0 -58.5 -16.5t-24.5 -43.5q0 -25 15.5 -42.5t55.5 -29.5
l55 -17q136 -42 136 -147q0 -70 -48.5 -110t-125.5 -40zM167 -269l36 85q-32 19 -32 52q0 24 17 41.5t41 17.5t41 -17.5t17 -41.5q0 -18 -11 -35l-64 -102h-45z" />
    <glyph glyph-name="uni021A" unicode="&#x21a;" horiz-adv-x="567" 
d="M238 0v622h-221v88h533v-88h-221v-622h-91zM221 -269l36 85q-32 19 -32 52q0 24 17 41.5t41 17.5t41 -17.5t17 -41.5q0 -18 -11 -35l-64 -102h-45z" />
    <glyph glyph-name="uni021B" unicode="&#x21b;" horiz-adv-x="381" 
d="M275 -5q-69 0 -111 39t-42 114v273h-106v79h106v139h86v-139h144v-79h-144v-262q0 -47 20 -66t63 -19q38 0 61 10v-77q-36 -12 -77 -12zM178 -269l36 85q-32 19 -32 52q0 24 17 41.5t41 17.5t41 -17.5t17 -41.5q0 -18 -11 -35l-64 -102h-45z" />
    <glyph glyph-name="uni0232" unicode="&#x232;" horiz-adv-x="674" 
d="M291 0v301l-276 409h111l211 -316l212 316h111l-277 -410v-300h-92zM176 805v69h322v-69h-322z" />
    <glyph glyph-name="uni0233" unicode="&#x233;" horiz-adv-x="547" 
d="M214 -209h-96l109 235l-219 474h95l172 -380l171 380h96zM114 641v69h322v-69h-322z" />
    <glyph glyph-name="uni0237" unicode="&#x237;" horiz-adv-x="257" 
d="M175 500v-566q0 -75 -42 -114t-109 -39q-23 0 -41 3v77q16 -2 29 -2q77 0 77 85v556h86z" />
    <glyph glyph-name="uni0259" unicode="&#x259;" horiz-adv-x="579" 
d="M284 -10q-105 0 -175 68t-70 183v26h411q-2 69 -51 116.5t-114 47.5q-101 0 -152 -87l-68 47q74 119 220 119q109 0 180 -74.5t71 -185.5t-71 -185.5t-181 -74.5zM285 66q55 0 101.5 35.5t57.5 95.5h-317q9 -61 52.5 -96t105.5 -35z" />
    <glyph glyph-name="uni02BB" unicode="&#x2bb;" horiz-adv-x="251" 
d="M54 545l104 165h57l-67 -143q41 -21 41 -67q0 -30 -22 -52.5t-52 -22.5q-32 0 -53 22t-21 53q0 25 13 45z" />
    <glyph glyph-name="uni02BC" unicode="&#x2bc;" horiz-adv-x="254" 
d="M209 602l-103 -165h-58l67 143q-18 9 -29.5 27.5t-11.5 39.5q0 31 21.5 53t53.5 22q31 0 52.5 -22t21.5 -53q0 -22 -14 -45z" />
    <glyph glyph-name="circumflex" unicode="&#x2c6;" 
d="M0 756l159 -101v-79l-159 101l-159 -101v79z" />
    <glyph glyph-name="caron" unicode="&#x2c7;" 
d="M0 576l-159 101v79l159 -101l159 101v-79z" />
    <glyph glyph-name="breve" unicode="&#x2d8;" 
d="M0 578q-68 0 -113.5 44t-45.5 115v13h58v-13q0 -48 28.5 -74.5t72.5 -26.5t72.5 26.5t28.5 74.5v13h58v-13q0 -71 -45.5 -115t-113.5 -44z" />
    <glyph glyph-name="dotaccent" unicode="&#x2d9;" 
d="M0 596q-25 0 -42 17t-17 41t17 41.5t42 17.5q24 0 41 -17.5t17 -41.5t-17 -41t-41 -17z" />
    <glyph glyph-name="ring" unicode="&#x2da;" 
d="M0 543q-50 0 -85.5 35t-35.5 85t35.5 85t85.5 35t86 -35.5t36 -84.5t-36 -84.5t-86 -35.5zM0 594q29 0 50 20t21 49t-21 49.5t-50 20.5t-49 -20.5t-20 -49.5t20 -49t49 -20z" />
    <glyph glyph-name="ogonek" unicode="&#x2db;" 
d="M8 -219q-40 0 -67 24.5t-27 62.5q0 30 16 58t29.5 40.5t39.5 33.5h86q-93 -58 -93 -115q0 -37 38 -37q25 0 55 22v-63q-28 -26 -77 -26z" />
    <glyph glyph-name="tilde" unicode="&#x2dc;" 
d="M-174 593l3 18q8 43 37 69t69 26q29 0 72.5 -22t56.5 -22q32 0 43 44h66l-3 -18q-8 -43 -37 -69t-69 -26q-29 0 -72.5 22t-56.5 22q-32 0 -43 -44h-66z" />
    <glyph glyph-name="hungarumlaut" unicode="&#x2dd;" 
d="M-1 560l69 190h99l-109 -190h-59zM-168 560l69 190h99l-109 -190h-59z" />
    <glyph glyph-name="uni0401" unicode="&#x401;" horiz-adv-x="557" 
d="M94 0v710h414v-88h-321v-215h261v-88h-261v-231h321v-88h-414zM188 785q-25 0 -42 17t-17 41t17 41.5t42 17.5q24 0 41 -17.5t17 -41.5t-17 -41t-41 -17zM413 785q-24 0 -41.5 17t-17.5 41t17.5 41.5t41.5 17.5t41 -17.5t17 -41.5t-17 -41t-41 -17z" />
    <glyph glyph-name="uni0402" unicode="&#x402;" horiz-adv-x="748" 
d="M486 442q108 0 168.5 -67.5t60.5 -161.5q0 -104 -65.5 -164.5t-163.5 -60.5q-47 0 -83 6v85q45 -5 82 -5q57 0 97.5 37t40.5 102q0 64 -41 102.5t-112 38.5q-79 0 -132 -53.5t-53 -148.5v-152h-93v622h-174v88h491v-88h-224v-279q67 99 201 99z" />
    <glyph glyph-name="uni0403" unicode="&#x403;" horiz-adv-x="513" 
d="M495 710v-88h-308v-622h-93v710h401zM267 770l78 157h108l-114 -157h-72z" />
    <glyph glyph-name="uni0404" unicode="&#x404;" horiz-adv-x="755" 
d="M412 -12q-153 0 -260 106.5t-107 260.5t107 260.5t260 106.5q99 0 182.5 -46.5t131.5 -125.5l-78 -47q-38 61 -99 95.5t-137 34.5q-103 0 -178 -65.5t-91 -165.5h364v-86h-366q14 -104 90 -172t181 -68q76 0 137 34.5t99 95.5l78 -47q-49 -79 -131.5 -125t-182.5 -46z
" />
    <glyph glyph-name="uni0405" unicode="&#x405;" horiz-adv-x="554" 
d="M285 -12q-85 0 -152.5 36t-96.5 92l75 56q63 -97 176 -97q57 0 94 28.5t37 77.5q0 82 -102 120l-94 36q-84 31 -122.5 77.5t-38.5 118.5q0 86 62.5 137.5t159.5 51.5q65 0 119 -26.5t88 -70.5l-68 -60q-59 70 -141 70q-54 0 -91 -27.5t-37 -70.5t25 -68t82 -46l86 -33
q82 -31 123.5 -80t41.5 -125q0 -89 -63.5 -143t-162.5 -54z" />
    <glyph glyph-name="uni0406" unicode="&#x406;" horiz-adv-x="281" 
d="M94 0v710h93v-710h-93z" />
    <glyph glyph-name="uni0407" unicode="&#x407;" horiz-adv-x="281" 
d="M94 0v710h93v-710h-93zM42 806q-26 0 -43.5 17.5t-17.5 43.5q0 25 17.5 42.5t43.5 17.5q25 0 43 -17.5t18 -42.5q0 -26 -18 -43.5t-43 -17.5zM238 806q-26 0 -43.5 17.5t-17.5 43.5q0 25 17.5 42.5t43.5 17.5q25 0 43 -17.5t18 -42.5q0 -26 -18 -43.5t-43 -17.5z" />
    <glyph glyph-name="uni0408" unicode="&#x408;" horiz-adv-x="529" 
d="M233 -12q-91 0 -151 53.5t-60 148.5h92q0 -54 34.5 -85t83.5 -31q51 0 84 32t33 100v504h92v-514q0 -105 -59 -156.5t-149 -51.5z" />
    <glyph glyph-name="uni0409" unicode="&#x409;" horiz-adv-x="1031" 
d="M907 207q0 52 -39 82.5t-112 30.5h-123v-233h123q151 0 151 120zM139 710h494v-303h125q111 0 176 -55.5t65 -142.5q0 -93 -65.5 -151t-175.5 -58h-217v622h-309v-432q0 -106 -42 -154t-113 -48q-33 0 -56 4v85q13 -3 45 -3q39 0 56 28t17 102v506z" />
    <glyph glyph-name="uni040A" unicode="&#x40a;" horiz-adv-x="1044" 
d="M94 0v710h93v-303h369v303h92v-303h123q111 0 176 -55.5t65 -142.5q0 -93 -65.5 -151t-175.5 -58h-215v320h-369v-320h-93zM770 320h-122v-233h122q150 0 150 120q0 52 -38.5 82.5t-111.5 30.5z" />
    <glyph glyph-name="uni040B" unicode="&#x40b;" horiz-adv-x="757" 
d="M192 622h-174v88h491v-88h-224v-279q62 99 205 99q100 0 161.5 -67t61.5 -177v-198h-92v183q0 83 -40.5 127t-110.5 44q-75 0 -130 -52t-55 -151v-151h-93v622z" />
    <glyph glyph-name="uni040C" unicode="&#x40c;" horiz-adv-x="671" 
d="M563 0l-377 338v-338h-92v710h92v-308l310 308h121l-338 -338l415 -372h-131zM315 770l78 157h108l-114 -157h-72z" />
    <glyph glyph-name="uni040E" unicode="&#x40e;" horiz-adv-x="698" 
d="M134 -6v85q23 -4 61 -4q69 0 109 77l9 17l-278 541h105l226 -441l233 441h101l-299 -566q-46 -87 -89 -121.5t-107 -34.5q-31 0 -71 6zM369 759q-68 0 -113.5 43.5t-45.5 114.5h66q0 -45 25.5 -72t67.5 -27t67.5 27t25.5 72h66q0 -71 -45.5 -114.5t-113.5 -43.5z" />
    <glyph glyph-name="uni040F" unicode="&#x40f;" horiz-adv-x="741" 
d="M415 0v-148h-88v148h-233v710h93v-622h367v622h93v-710h-232z" />
    <glyph glyph-name="uni0410" unicode="&#x410;" horiz-adv-x="718" 
d="M6 0l314 710h77l315 -710h-97l-92 207h-331l-90 -207h-96zM357 584l-128 -293h257z" />
    <glyph glyph-name="uni0411" unicode="&#x411;" horiz-adv-x="624" 
d="M187 416h164q107 0 173.5 -55t66.5 -153q0 -97 -66.5 -152.5t-173.5 -55.5h-257v710h431v-88h-338v-206zM498 208q0 59 -38 90.5t-109 31.5h-164v-244h164q71 0 109 32t38 90z" />
    <glyph glyph-name="uni0412" unicode="&#x412;" horiz-adv-x="629" 
d="M94 0v710h233q96 0 154 -55t58 -133q0 -98 -76 -145q123 -45 123 -170q0 -90 -65.5 -148.5t-172.5 -58.5h-254zM187 84h165q70 0 106.5 32.5t36.5 87.5q0 54 -36.5 87.5t-105.5 33.5h-166v-241zM187 405h140q56 0 88.5 30.5t32.5 79.5q0 47 -33 79t-88 32h-140v-221z" />
    <glyph glyph-name="uni0413" unicode="&#x413;" horiz-adv-x="513" 
d="M495 710v-88h-308v-622h-93v710h401z" />
    <glyph glyph-name="uni0414" unicode="&#x414;" horiz-adv-x="758" 
d="M636 -148v148h-517v-148h-86v236h13q28 0 46.5 18t32 75t13.5 154v375h496v-622h88v-236h-86zM231 622v-302q0 -160 -45 -232h355v534h-310z" />
    <glyph glyph-name="uni0415" unicode="&#x415;" horiz-adv-x="557" 
d="M94 0v710h414v-88h-321v-215h261v-88h-261v-231h321v-88h-414z" />
    <glyph glyph-name="uni0416" unicode="&#x416;" horiz-adv-x="967" 
d="M853 0l-323 317v-317h-93v317l-323 -317h-123l358 353l-329 357h114l303 -329v329h93v-329l303 329h114l-329 -357l358 -353h-123z" />
    <glyph glyph-name="uni0417" unicode="&#x417;" horiz-adv-x="572" 
d="M110 573l-57 63q89 86 221 86q98 0 159.5 -53t61.5 -139q0 -110 -91 -158q118 -46 118 -173q0 -98 -72 -154.5t-176 -56.5q-80 0 -146 29.5t-107 85.5l68 59q30 -41 79.5 -64t105.5 -23q72 0 114.5 36t42.5 93q0 55 -38 89t-110 34h-94v79h95q57 0 89 33t32 82
q0 52 -35 83t-102 32q-90 2 -158 -63z" />
    <glyph glyph-name="uni0418" unicode="&#x418;" horiz-adv-x="794" 
d="M175 0h-81v710h93v-552l432 552h80v-710h-92v553z" />
    <glyph glyph-name="uni0419" unicode="&#x419;" horiz-adv-x="794" 
d="M175 0h-81v710h93v-552l432 552h80v-710h-92v553zM406 759q-68 0 -113.5 43.5t-45.5 114.5h66q0 -45 25.5 -72t67.5 -27t67.5 27t25.5 72h66q0 -71 -45.5 -114.5t-113.5 -43.5z" />
    <glyph glyph-name="uni041A" unicode="&#x41a;" horiz-adv-x="671" 
d="M563 0l-377 338v-338h-92v710h92v-308l310 308h121l-338 -338l415 -372h-131z" />
    <glyph glyph-name="uni041B" unicode="&#x41b;" horiz-adv-x="729" 
d="M139 204v506h496v-710h-92v622h-311v-432q0 -106 -42 -154t-113 -48q-35 0 -56 4v85q13 -3 45 -3q39 0 56 28t17 102z" />
    <glyph glyph-name="uni041C" unicode="&#x41c;" horiz-adv-x="886" 
d="M94 710h85l263 -354l265 354h84v-710h-92v552l-256 -344l-256 344v-552h-93v710z" />
    <glyph glyph-name="uni041D" unicode="&#x41d;" horiz-adv-x="763" 
d="M94 0v710h93v-303h389v303h93v-710h-93v320h-389v-320h-93z" />
    <glyph glyph-name="uni041E" unicode="&#x41e;" horiz-adv-x="825" 
d="M412 76q117 0 195.5 81t78.5 198t-78.5 198t-195.5 81q-116 0 -194.5 -81t-78.5 -198t78.5 -198t194.5 -81zM412 -12q-153 0 -260 106.5t-107 260.5t107 260.5t260 106.5q154 0 260.5 -106.5t106.5 -260.5t-106.5 -260.5t-260.5 -106.5z" />
    <glyph glyph-name="uni041F" unicode="&#x41f;" horiz-adv-x="747" 
d="M561 0v622h-377v-622h-90v710h558v-710h-91z" />
    <glyph glyph-name="uni0420" unicode="&#x420;" horiz-adv-x="586" 
d="M555 484q0 -98 -67.5 -161.5t-176.5 -63.5h-124v-259h-93v710h217q109 0 176.5 -64t67.5 -162zM463 484q0 61 -40.5 100t-111.5 39h-124v-278h124q71 0 111.5 39t40.5 100z" />
    <glyph glyph-name="uni0421" unicode="&#x421;" horiz-adv-x="755" 
d="M412 -12q-153 0 -260 106.5t-107 260.5t107 260.5t260 106.5q101 0 183 -46t131 -126l-78 -47q-38 61 -99 96t-137 35q-116 0 -194.5 -81t-78.5 -198t78.5 -198t194.5 -81q76 0 137 35t99 96l78 -47q-49 -80 -131 -126t-183 -46z" />
    <glyph glyph-name="uni0422" unicode="&#x422;" horiz-adv-x="567" 
d="M238 0v622h-221v88h533v-88h-221v-622h-91z" />
    <glyph glyph-name="uni0423" unicode="&#x423;" horiz-adv-x="698" 
d="M134 -6v85q23 -4 61 -4q69 0 109 77l9 17l-278 541h105l226 -441l233 441h101l-299 -566q-46 -87 -89 -121.5t-107 -34.5q-31 0 -71 6z" />
    <glyph glyph-name="uni0424" unicode="&#x424;" horiz-adv-x="868" 
d="M388 148v420h-6q-121 1 -183.5 -54.5t-62.5 -154.5q0 -100 62 -155.5t184 -55.5h6zM480 -30h-92v93h-5q-158 0 -249.5 79t-91.5 217t91 216t250 78h5v87h92v-87h6q159 0 249.5 -78t90.5 -216t-91.5 -217t-248.5 -79h-6v-93zM480 148h6q122 0 184.5 55.5t62.5 155.5
q0 99 -63 154.5t-184 54.5h-6v-420z" />
    <glyph glyph-name="uni0425" unicode="&#x425;" horiz-adv-x="670" 
d="M118 0h-114l274 359l-263 351h111l209 -277l209 277h111l-262 -351l273 -359h-113l-218 284z" />
    <glyph glyph-name="uni0426" unicode="&#x426;" horiz-adv-x="761" 
d="M636 88h89v-236h-87v148h-544v710h93v-622h357v622h92v-622z" />
    <glyph glyph-name="uni0427" unicode="&#x427;" horiz-adv-x="685" 
d="M591 0h-92v363q-65 -99 -216 -99q-108 0 -173 66t-65 178v202h92v-188q0 -85 43 -128t122 -43q81 0 139 52.5t58 152.5v154h92v-710z" />
    <glyph glyph-name="uni0428" unicode="&#x428;" horiz-adv-x="987" 
d="M94 0v710h93v-622h260v622h93v-622h260v622h93v-710h-799z" />
    <glyph glyph-name="uni0429" unicode="&#x429;" horiz-adv-x="1018" 
d="M894 -148v148h-800v710h93v-622h260v622h93v-622h260v622h93v-622h89v-236h-88z" />
    <glyph glyph-name="uni042A" unicode="&#x42a;" horiz-adv-x="709" 
d="M301 425h132q111 0 177 -58t66 -154t-66 -154.5t-177 -58.5h-225v622h-191v88h284v-285zM301 86h130q73 0 112.5 32.5t39.5 94.5q0 60 -39.5 93t-112.5 33h-130v-253z" />
    <glyph glyph-name="uni042B" unicode="&#x42b;" horiz-adv-x="849" 
d="M187 425h132q110 0 176 -58t66 -154t-66 -154.5t-176 -58.5h-225v710h93v-285zM187 86h129q74 0 113.5 32.5t39.5 94.5q0 60 -39.5 93t-113.5 33h-129v-253zM662 0v710h93v-710h-93z" />
    <glyph glyph-name="uni042C" unicode="&#x42c;" horiz-adv-x="595" 
d="M187 425h132q110 0 176 -58t66 -154t-66 -154.5t-176 -58.5h-225v710h93v-285zM187 86h129q74 0 113.5 32.5t39.5 94.5q0 60 -39.5 93t-113.5 33h-129v-253z" />
    <glyph glyph-name="uni042D" unicode="&#x42d;" horiz-adv-x="755" 
d="M343 -12q-100 0 -182.5 46t-131.5 125l78 47q38 -61 99 -95.5t137 -34.5q105 0 181 68t90 172h-366v86h364q-16 100 -91 165.5t-178 65.5q-76 0 -137 -34.5t-99 -95.5l-78 47q48 79 131.5 125.5t182.5 46.5q153 0 260 -106.5t107 -260.5t-107 -260.5t-260 -106.5z" />
    <glyph glyph-name="uni042E" unicode="&#x42e;" horiz-adv-x="1068" 
d="M94 0v710h93v-304h126q18 137 117 226.5t236 89.5q150 0 253 -105.5t103 -261.5t-103 -261.5t-253 -105.5q-140 0 -241.5 94.5t-113.5 236.5h-124v-319h-93zM929 355q0 118 -75.5 198.5t-187.5 80.5q-111 0 -186.5 -80.5t-75.5 -198.5t75.5 -198.5t186.5 -80.5
q112 0 187.5 80.5t75.5 198.5z" />
    <glyph glyph-name="uni042F" unicode="&#x42f;" horiz-adv-x="630" 
d="M443 0v289h-89l-247 -289h-116l260 302q-79 17 -123.5 70.5t-44.5 128.5q0 93 65 151t175 58h212v-710h-92zM175 501q0 -58 39.5 -92t111.5 -34h117v249h-117q-72 0 -111.5 -33t-39.5 -90z" />
    <glyph glyph-name="uni0430" unicode="&#x430;" horiz-adv-x="630" 
d="M287 -10q-104 0 -174.5 76t-70.5 184t70.5 184t174.5 76q55 0 102.5 -24.5t73.5 -62.5v77h86v-500h-86v77q-26 -38 -73.5 -62.5t-102.5 -24.5zM300 69q74 0 122 52t48 129t-48 129t-122 52q-75 0 -123 -52t-48 -129t48 -129t123 -52z" />
    <glyph glyph-name="uni0431" unicode="&#x431;" horiz-adv-x="625" 
d="M321 -10q-118 0 -188.5 78t-70.5 205v51q0 184 66 275.5t216 120.5l186 34v-82l-167 -31q-107 -19 -154.5 -72t-59.5 -156q65 87 184 87q113 0 181.5 -72t68.5 -176q0 -110 -74.5 -186t-187.5 -76zM321 70q76 0 125 51t49 131q0 75 -48.5 122.5t-123.5 47.5
q-77 0 -125.5 -48.5t-48.5 -121.5q0 -80 48 -131t124 -51z" />
    <glyph glyph-name="uni0432" unicode="&#x432;" horiz-adv-x="545" 
d="M81 0v500h218q83 0 127 -37t44 -99q0 -59 -49 -97q82 -40 82 -122q0 -63 -45 -104t-135 -41h-242zM167 75h161q40 0 63.5 20t23.5 55t-23.5 54.5t-63.5 19.5h-161v-149zM167 293h139q77 0 77 67q0 35 -22 50.5t-55 15.5h-139v-133z" />
    <glyph glyph-name="uni0433" unicode="&#x433;" horiz-adv-x="411" 
d="M81 0v500h313v-79h-227v-421h-86z" />
    <glyph glyph-name="uni0434" unicode="&#x434;" horiz-adv-x="625" 
d="M33 79h12q72 0 72 162v259h397v-421h75v-205h-81v126h-394v-126h-81v205zM203 421v-194q0 -94 -31 -148h256v342h-225z" />
    <glyph glyph-name="uni0435" unicode="&#x435;" horiz-adv-x="581" 
d="M301 -10q-115 0 -187 74t-72 186q0 111 73 185.5t187 74.5q101 0 169.5 -67.5t68.5 -183.5q0 -15 -1 -26h-410q2 -70 50.5 -117t122.5 -47q105 0 156 87l68 -47q-73 -119 -225 -119zM135 303h317q-10 60 -52.5 95.5t-100.5 35.5q-59 0 -105.5 -35.5t-58.5 -95.5z" />
    <glyph glyph-name="uni0436" unicode="&#x436;" horiz-adv-x="778" 
d="M668 0l-236 222v-222h-86v222l-236 -222h-114l268 255l-233 245h107l208 -222v222h86v-222l209 222h106l-233 -245l268 -255h-114z" />
    <glyph glyph-name="uni0437" unicode="&#x437;" horiz-adv-x="476" 
d="M231 -10q-133 0 -204 102l64 43q51 -71 137 -71q114 0 114 82q0 79 -107 79h-75v70h74q92 0 92 71q0 35 -25.5 53.5t-71.5 18.5q-76 0 -124 -61l-61 44q68 89 189 89q84 0 130 -39.5t46 -99.5q0 -72 -62 -108q82 -37 82 -124q0 -64 -52 -106.5t-146 -42.5z" />
    <glyph glyph-name="uni0438" unicode="&#x438;" horiz-adv-x="607" 
d="M158 0h-77v500h86v-367l282 367h76v-500h-85v367z" />
    <glyph glyph-name="uni0439" unicode="&#x439;" horiz-adv-x="607" 
d="M158 0h-77v500h86v-367l282 367h76v-500h-85v367zM311 578q-68 0 -113.5 44t-45.5 115v13h68v-13q0 -48 25.5 -74.5t65.5 -26.5t65.5 26.5t25.5 74.5v13h68v-13q0 -71 -45.5 -115t-113.5 -44z" />
    <glyph glyph-name="uni043A" unicode="&#x43a;" horiz-adv-x="524" 
d="M416 0l-249 223v-223h-86v500h86v-222l222 222h109l-245 -245l282 -255h-119z" />
    <glyph glyph-name="uni043B" unicode="&#x43b;" horiz-adv-x="582" 
d="M66 -7q-34 0 -45 3v77q7 -2 32 -2q31 0 46 21.5t15 76.5v331h386v-500h-86v421h-214v-270q0 -77 -37 -117.5t-97 -40.5z" />
    <glyph glyph-name="uni043C" unicode="&#x43c;" horiz-adv-x="691" 
d="M81 500h79l185 -246l186 246h79v-500h-86v361l-179 -236l-178 236v-361h-86v500z" />
    <glyph glyph-name="uni043D" unicode="&#x43d;" horiz-adv-x="607" 
d="M81 0v500h86v-206h273v206h86v-500h-86v216h-273v-216h-86z" />
    <glyph glyph-name="uni043E" unicode="&#x43e;" horiz-adv-x="606" 
d="M303 -10q-113 0 -187.5 75.5t-74.5 184.5t74.5 184.5t187.5 75.5q112 0 186.5 -75.5t74.5 -184.5t-74.5 -184.5t-186.5 -75.5zM303 70q77 0 125 52t48 128t-48 128t-125 52t-125.5 -52t-48.5 -128t48.5 -128t125.5 -52z" />
    <glyph glyph-name="uni043F" unicode="&#x43f;" horiz-adv-x="596" 
d="M81 0v500h434v-500h-86v421h-262v-421h-86z" />
    <glyph glyph-name="uni0440" unicode="&#x440;" horiz-adv-x="631" 
d="M167 -209h-86v709h86v-77q26 38 73.5 62.5t102.5 24.5q104 0 174.5 -76t70.5 -184t-70.5 -184t-174.5 -76q-55 0 -102.5 24.5t-73.5 62.5v-286zM330 69q74 0 122 52t48 129t-48 129t-122 52t-122 -52t-48 -129t48 -129t122 -52z" />
    <glyph glyph-name="uni0441" unicode="&#x441;" horiz-adv-x="565" 
d="M304 -10q-113 0 -187.5 75t-74.5 185t74.5 185t187.5 75q76 0 136.5 -36t94.5 -98l-75 -42q-22 44 -62.5 70t-93.5 26q-77 0 -126 -52t-49 -128t49 -128t126 -52q53 0 93.5 26t62.5 70l75 -42q-34 -62 -94.5 -98t-136.5 -36z" />
    <glyph glyph-name="uni0442" unicode="&#x442;" horiz-adv-x="445" 
d="M176 0v421h-159v79h411v-79h-166v-421h-86z" />
    <glyph glyph-name="uni0443" unicode="&#x443;" horiz-adv-x="548" 
d="M542 500l-271 -589q-31 -69 -69.5 -99.5t-96.5 -30.5q-37 0 -56 5v76q15 -3 49 -3q56 0 90 76l41 88l-221 477h95l173 -377l170 377h96z" />
    <glyph glyph-name="uni0444" unicode="&#x444;" horiz-adv-x="732" 
d="M409 -209h-86v199h-6q-126 0 -200.5 75.5t-74.5 184.5t74.5 184.5t200.5 75.5h6v241h86v-241h6q126 0 200.5 -75.5t74.5 -184.5t-74.5 -184.5t-200.5 -75.5h-6v-199zM415 431h-6v-362h6q87 0 137.5 51.5t50.5 129.5t-51 129.5t-137 51.5zM323 69v362h-6q-86 0 -137 -51.5
t-51 -129.5t50.5 -129.5t137.5 -51.5h6z" />
    <glyph glyph-name="uni0445" unicode="&#x445;" horiz-adv-x="530" 
d="M417 0l-152 189l-152 -189h-107l205 253l-188 247h104l138 -181l137 181h105l-189 -247l205 -253h-106z" />
    <glyph glyph-name="uni0446" unicode="&#x446;" horiz-adv-x="622" 
d="M588 79v-205h-81v126h-426v500h86v-421h258v421h86v-421h77z" />
    <glyph glyph-name="uni0447" unicode="&#x447;" horiz-adv-x="543" 
d="M462 0h-86v233q-20 -31 -61 -49t-92 -18q-84 0 -133.5 48t-49.5 135v151h86v-142q0 -114 117 -114q51 0 92 35.5t41 100.5v120h86v-500z" />
    <glyph glyph-name="uni0448" unicode="&#x448;" horiz-adv-x="819" 
d="M81 0v500h86v-421h199v421h86v-421h199v421h86v-500h-656z" />
    <glyph glyph-name="uni0449" unicode="&#x449;" horiz-adv-x="849" 
d="M814 79v-205h-81v126h-652v500h86v-421h199v421h86v-421h199v421h86v-421h77z" />
    <glyph glyph-name="uni044A" unicode="&#x44a;" horiz-adv-x="573" 
d="M158 0v423h-140v77h226v-180h115q90 0 136.5 -47t46.5 -112q0 -66 -46.5 -113.5t-137.5 -47.5h-200zM244 242v-164h111q49 0 75.5 22t26.5 61t-26.5 60t-74.5 21h-112z" />
    <glyph glyph-name="uni044B" unicode="&#x44b;" horiz-adv-x="711" 
d="M543 0v500h86v-500h-86zM81 0v500h86v-180h116q90 0 136.5 -47t46.5 -112q0 -66 -47 -113.5t-137 -47.5h-201zM167 242v-164h112q48 0 74.5 22t26.5 61t-26 60t-74 21h-113z" />
    <glyph glyph-name="uni044C" unicode="&#x44c;" horiz-adv-x="496" 
d="M81 0v500h86v-180h116q90 0 136.5 -47t46.5 -112q0 -66 -47 -113.5t-137 -47.5h-201zM167 242v-164h112q48 0 74.5 22t26.5 61t-26 60t-74 21h-113z" />
    <glyph glyph-name="uni044D" unicode="&#x44d;" horiz-adv-x="565" 
d="M261 -10q-76 0 -136.5 36t-94.5 98l75 42q22 -44 62.5 -70t93.5 -26q69 0 116 41.5t57 106.5h-233v72h231q-12 61 -58.5 100.5t-112.5 39.5q-53 0 -93.5 -26t-62.5 -70l-75 42q34 62 94.5 98t136.5 36q113 0 187.5 -75t74.5 -185t-74.5 -185t-187.5 -75z" />
    <glyph glyph-name="uni044E" unicode="&#x44e;" horiz-adv-x="804" 
d="M511 -10q-99 0 -167.5 64t-80.5 162h-96v-216h-86v500h86v-207h97q15 95 82.5 156t164.5 61q109 0 180 -75t71 -185t-71 -185t-180 -75zM511 71q71 0 117 51.5t46 127.5t-46 127.5t-117 51.5t-116.5 -51t-45.5 -128q0 -76 45.5 -127.5t116.5 -51.5z" />
    <glyph glyph-name="uni044F" unicode="&#x44f;" horiz-adv-x="524" 
d="M-4 0l202 196q-59 14 -91 52.5t-32 92.5q0 69 47.5 114t134.5 45h185v-500h-86v182h-64l-188 -182h-108zM262 259h94v164h-94q-101 0 -101 -83q0 -39 26.5 -60t74.5 -21z" />
    <glyph glyph-name="uni0451" unicode="&#x451;" horiz-adv-x="581" 
d="M301 -10q-115 0 -187 74t-72 186q0 111 73 185.5t187 74.5q101 0 169.5 -67.5t68.5 -183.5q0 -15 -1 -26h-410q2 -70 50.5 -117t122.5 -47q105 0 156 87l68 -47q-73 -119 -225 -119zM135 303h317q-10 60 -52.5 95.5t-100.5 35.5q-59 0 -105.5 -35.5t-58.5 -95.5zM189 596
q-25 0 -42 17t-17 41t17 41.5t42 17.5q24 0 41 -17.5t17 -41.5t-17 -41t-41 -17zM414 596q-24 0 -41.5 17t-17.5 41t17.5 41.5t41.5 17.5t41 -17.5t17 -41.5t-17 -41t-41 -17z" />
    <glyph glyph-name="uni0452" unicode="&#x452;" horiz-adv-x="589" 
d="M364 -219q-24 0 -40 3v77q14 -2 28 -2q78 0 78 85v351q0 63 -32 99.5t-86 36.5q-62 0 -103.5 -49t-41.5 -134v-248h-86v586h-77v70h77v94h86v-94h174v-70h-174v-163q51 87 159 87q85 0 137 -55t52 -147v-374q0 -75 -42 -114t-109 -39z" />
    <glyph glyph-name="uni0453" unicode="&#x453;" horiz-adv-x="411" 
d="M81 0v500h313v-79h-227v-421h-86zM206 560l93 190h110l-134 -190h-69z" />
    <glyph glyph-name="uni0454" unicode="&#x454;" horiz-adv-x="565" 
d="M304 -10q-113 0 -187.5 75t-74.5 185t74.5 185t187.5 75q76 0 136.5 -36t94.5 -98l-75 -42q-22 44 -62.5 70t-93.5 26q-66 0 -112.5 -39.5t-58.5 -100.5h231v-72h-233q10 -65 57 -106.5t116 -41.5q53 0 93.5 26t62.5 70l75 -42q-34 -62 -94.5 -98t-136.5 -36z" />
    <glyph glyph-name="uni0455" unicode="&#x455;" horiz-adv-x="450" 
d="M233 -10q-71 0 -122.5 29t-74.5 87l70 39q14 -37 49 -58t78 -21q37 0 62 18t25 49q0 27 -19.5 45t-67.5 33l-50 16q-126 36 -124 146q0 62 48.5 99.5t123.5 37.5q114 0 164 -87l-64 -44q-37 57 -104 57q-33 0 -58 -16.5t-25 -43.5q0 -25 15.5 -42.5t55.5 -29.5l55 -17
q136 -42 136 -147q0 -70 -48.5 -110t-124.5 -40z" />
    <glyph glyph-name="uni0456" unicode="&#x456;" horiz-adv-x="249" 
d="M125 634q-26 0 -44 17.5t-18 43.5q0 25 18 43t44 18t43 -18t17 -43q0 -26 -17 -43.5t-43 -17.5zM81 0v500h86v-500h-86z" />
    <glyph glyph-name="uni0457" unicode="&#x457;" horiz-adv-x="249" 
d="M81 0v500h86v-500h-86zM26 596q-25 0 -42.5 17.5t-17.5 43.5q0 25 17.5 42.5t42.5 17.5q26 0 43.5 -17.5t17.5 -42.5q0 -26 -17.5 -43.5t-43.5 -17.5zM222 596q-25 0 -42.5 17.5t-17.5 43.5q0 25 17.5 42.5t42.5 17.5q26 0 43.5 -17.5t17.5 -42.5q0 -26 -17.5 -43.5
t-43.5 -17.5z" />
    <glyph glyph-name="uni0458" unicode="&#x458;" horiz-adv-x="257" 
d="M175 500v-566q0 -75 -42 -114t-109 -39q-23 0 -41 3v77q16 -2 29 -2q77 0 77 85v556h86zM133 634q-26 0 -44 17.5t-18 43.5q0 25 18 43t44 18t43 -18t17 -43q0 -26 -17 -43.5t-43 -17.5z" />
    <glyph glyph-name="uni0459" unicode="&#x459;" horiz-adv-x="812" 
d="M494 217v-139h115q42 0 65 18t23 51t-23 51.5t-65 18.5h-115zM114 500h380v-206h118q82 0 126.5 -43.5t44.5 -102.5t-44.5 -103.5t-126.5 -44.5h-204v421h-208v-270q0 -77 -37 -117.5t-97 -40.5q-34 0 -45 3v77q7 -2 32 -2q31 0 46 21.5t15 76.5v331z" />
    <glyph glyph-name="uni045A" unicode="&#x45a;" horiz-adv-x="833" 
d="M718 147q0 33 -23 51.5t-65 18.5h-114v-139h114q42 0 65 18t23 51zM804 148q0 -59 -44.5 -103.5t-126.5 -44.5h-203v216h-263v-216h-86v500h86v-206h263v206h86v-206h117q82 0 126.5 -43.5t44.5 -102.5z" />
    <glyph glyph-name="uni045B" unicode="&#x45b;" horiz-adv-x="589" 
d="M81 586h-77v70h77v94h86v-94h174v-70h-174v-163q51 87 159 87q85 0 137 -55t52 -147v-308h-85v295q0 63 -32 99.5t-86 36.5q-62 0 -103.5 -49t-41.5 -134v-248h-86v586z" />
    <glyph glyph-name="uni045C" unicode="&#x45c;" horiz-adv-x="524" 
d="M416 0l-249 223v-223h-86v500h86v-222l222 222h109l-245 -245l282 -255h-119zM251 560l93 190h110l-134 -190h-69z" />
    <glyph glyph-name="uni045E" unicode="&#x45e;" horiz-adv-x="548" 
d="M542 500l-271 -589q-31 -69 -69.5 -99.5t-96.5 -30.5q-37 0 -56 5v76q15 -3 49 -3q56 0 90 76l41 88l-221 477h95l173 -377l170 377h96zM275 578q-68 0 -113.5 44t-45.5 115v13h68v-13q0 -48 25.5 -74.5t65.5 -26.5t65.5 26.5t25.5 74.5v13h68v-13q0 -71 -45.5 -115
t-113.5 -44z" />
    <glyph glyph-name="uni045F" unicode="&#x45f;" horiz-adv-x="602" 
d="M520 0h-178v-126h-81v126h-180v500h86v-421h267v421h86v-500z" />
    <glyph glyph-name="uni0462" unicode="&#x462;" horiz-adv-x="712" 
d="M302 421h133q111 0 176.5 -57.5t65.5 -152.5t-66 -153t-176 -58h-225v533h-182v79h182v98h92v-98h226v-79h-226v-112zM302 86h130q74 0 113.5 32.5t39.5 92.5t-39.5 92t-113.5 32h-130v-249z" />
    <glyph glyph-name="uni0463" unicode="&#x463;" horiz-adv-x="550" 
d="M18 430v70h114v250h86v-250h200v-70h-200v-110h115q91 0 137 -47t46 -112q0 -66 -46.5 -113.5t-137.5 -47.5h-200v430h-114zM330 242h-112v-164h111q49 0 75.5 22t26.5 61t-26.5 60t-74.5 21z" />
    <glyph glyph-name="uni0472" unicode="&#x472;" horiz-adv-x="825" 
d="M412 76q117 0 195.5 81t78.5 198t-78.5 198t-195.5 81q-116 0 -194.5 -81t-78.5 -198t78.5 -198t194.5 -81zM412 -12q-153 0 -260 106.5t-107 260.5t107 260.5t260 106.5q154 0 260.5 -106.5t106.5 -260.5t-106.5 -260.5t-260.5 -106.5zM538 374q89 0 154 47v-84
q-65 -47 -154 -47q-47 0 -128.5 23.5t-122.5 23.5q-89 0 -154 -47v84q65 47 154 47q53 0 130 -23.5t121 -23.5z" />
    <glyph glyph-name="uni0473" unicode="&#x473;" horiz-adv-x="606" 
d="M303 -10q-113 0 -187.5 75.5t-74.5 184.5t74.5 184.5t187.5 75.5q112 0 186.5 -75.5t74.5 -184.5t-74.5 -184.5t-186.5 -75.5zM303 70q77 0 125 52t48 128t-48 128t-125 52t-125.5 -52t-48.5 -128t48.5 -128t125.5 -52zM102 284v-68h402v68h-402z" />
    <glyph glyph-name="uni0474" unicode="&#x474;" horiz-adv-x="775" 
d="M111 710l240 -564l185 433q33 82 68.5 112.5t93.5 30.5q35 0 59 -8v-85q-56 9 -81.5 -5.5t-50.5 -74.5l-235 -549h-78l-303 710h102z" />
    <glyph glyph-name="uni0475" unicode="&#x475;" horiz-adv-x="594" 
d="M6 500h96l170 -379l122 266q30 67 60.5 95t77.5 28q32 0 50 -6v-76q-41 6 -60.5 -4.5t-39.5 -51.5l-173 -372h-72z" />
    <glyph glyph-name="uni0490" unicode="&#x490;" horiz-adv-x="513" 
d="M495 710v-88h-308v-622h-93v710h401zM495 710h-88v148h88v-148z" />
    <glyph glyph-name="uni0491" unicode="&#x491;" horiz-adv-x="411" 
d="M81 0v500h313v-79h-227v-421h-86zM394 500h-81v126h81v-126z" />
    <glyph glyph-name="uni0492" unicode="&#x492;" horiz-adv-x="532" 
d="M511 710v-88h-308v-622h-93v710h401zM20 316v85h363v-85h-363z" />
    <glyph glyph-name="uni0493" unicode="&#x493;" horiz-adv-x="429" 
d="M99 0v500h313v-79h-227v-421h-86zM315 226h-296v70h296v-70z" />
    <glyph glyph-name="uni0496" unicode="&#x496;" horiz-adv-x="990" 
d="M853 0l-323 317v-317h-93v317l-323 -317h-123l358 353l-329 357h114l303 -329v329h93v-329l303 329h114l-329 -357l358 -353h-123zM899 -148v148h-27v88h115v-236h-88z" />
    <glyph glyph-name="uni0497" unicode="&#x497;" horiz-adv-x="799" 
d="M668 0l-236 222v-222h-86v222l-236 -222h-114l268 255l-233 245h107l208 -222v222h86v-222l209 222h106l-233 -245l268 -255h-114zM710 -126v126h-28v79h109v-205h-81z" />
    <glyph glyph-name="uni049A" unicode="&#x49a;" horiz-adv-x="694" 
d="M563 0l-377 338v-338h-92v710h92v-308l310 308h121l-338 -338l415 -372h-131zM610 -148v148h-27v88h115v-236h-88z" />
    <glyph glyph-name="uni049B" unicode="&#x49b;" horiz-adv-x="544" 
d="M416 0l-249 223v-223h-86v500h86v-222l222 222h109l-245 -245l282 -255h-119zM460 -126v126h-28v79h109v-205h-81z" />
    <glyph glyph-name="uni04A2" unicode="&#x4a2;" horiz-adv-x="793" 
d="M94 0v710h93v-303h389v303h93v-710h-93v320h-389v-320h-93zM670 -148v148h-27v88h115v-236h-88z" />
    <glyph glyph-name="uni04A3" unicode="&#x4a3;" horiz-adv-x="637" 
d="M81 0v500h86v-206h273v206h86v-500h-86v216h-273v-216h-86zM521 -126v126h-28v79h109v-205h-81z" />
    <glyph glyph-name="uni04AE" unicode="&#x4ae;" horiz-adv-x="674" 
d="M291 0v301l-276 409h111l211 -316l212 316h111l-277 -410v-300h-92z" />
    <glyph glyph-name="uni04AF" unicode="&#x4af;" horiz-adv-x="549" 
d="M232 -209v207l-225 502h96l171 -391l171 391h97l-224 -498v-211h-86z" />
    <glyph glyph-name="uni04B0" unicode="&#x4b0;" horiz-adv-x="671" 
d="M290 0v301l-276 409h111l211 -316l212 316h111l-277 -410v-300h-92zM537 301v-85h-404v85h404z" />
    <glyph glyph-name="uni04B1" unicode="&#x4b1;" horiz-adv-x="549" 
d="M232 -209v207l-225 502h96l171 -391l171 391h97l-224 -498v-211h-86zM96 -70v70h359v-70h-359z" />
    <glyph glyph-name="uni04B2" unicode="&#x4b2;" horiz-adv-x="704" 
d="M118 0h-114l274 359l-263 351h111l209 -277l209 277h111l-262 -351l273 -359h-113l-218 284zM610 -148v148h-27v88h115v-236h-88z" />
    <glyph glyph-name="uni04B3" unicode="&#x4b3;" horiz-adv-x="555" 
d="M417 0l-152 189l-152 -189h-107l205 253l-188 247h104l138 -181l137 181h105l-189 -247l205 -253h-106zM462 -126v126h-28v79h109v-205h-81z" />
    <glyph glyph-name="uni04B6" unicode="&#x4b6;" horiz-adv-x="716" 
d="M591 0h-92v363q-65 -99 -216 -99q-108 0 -173 66t-65 178v202h92v-188q0 -85 43 -128t122 -43q81 0 139 52.5t58 152.5v154h92v-710zM593 -148v148h-27v88h115v-236h-88z" />
    <glyph glyph-name="uni04B7" unicode="&#x4b7;" horiz-adv-x="574" 
d="M462 0h-86v233q-20 -31 -61 -49t-92 -18q-84 0 -133.5 48t-49.5 135v151h86v-142q0 -114 117 -114q51 0 92 35.5t41 100.5v120h86v-500zM458 -126v126h-28v79h109v-205h-81z" />
    <glyph glyph-name="uni04BA" unicode="&#x4ba;" horiz-adv-x="686" 
d="M94 710h92v-363q65 99 216 99q108 0 173 -66t65 -178v-202h-92v188q0 85 -43 128t-122 43q-81 0 -139 -52.5t-58 -152.5v-154h-92v710z" />
    <glyph glyph-name="uni04BB" unicode="&#x4bb;" horiz-adv-x="589" 
d="M167 0h-86v750h86v-327q51 87 159 87q85 0 137 -55t52 -147v-308h-85v295q0 63 -32 99.5t-86 36.5q-62 0 -103.5 -49t-41.5 -134v-248z" />
    <glyph glyph-name="uni04C0" unicode="&#x4c0;" horiz-adv-x="281" 
d="M94 0v710h93v-710h-93z" />
    <glyph glyph-name="uni04CF" unicode="&#x4cf;" horiz-adv-x="249" 
d="M81 0v750h86v-750h-86z" />
    <glyph glyph-name="uni04D8" unicode="&#x4d8;" horiz-adv-x="814" 
d="M34 355v48h637q-17 106 -94.5 168.5t-176.5 62.5q-60 0 -115 -22.5t-92 -60.5l-63 64q51 50 122.5 78.5t148.5 28.5q154 0 260.5 -106t106.5 -261q0 -154 -106.5 -260.5t-260.5 -106.5t-260.5 106.5t-106.5 260.5zM401 76q103 0 181.5 67.5t90.5 176.5h-542
q10 -105 86.5 -174.5t183.5 -69.5z" />
    <glyph glyph-name="uni04D9" unicode="&#x4d9;" horiz-adv-x="581" 
d="M280 510q115 0 187 -74t72 -186q0 -111 -73.5 -185.5t-186.5 -74.5q-102 0 -170 67.5t-68 183.5q0 15 1 26h410q-2 70 -50.5 117t-122.5 47q-105 0 -156 -87l-68 47q73 119 225 119zM282 66q59 0 105.5 35.5t58.5 95.5h-317q8 -60 51.5 -95.5t101.5 -35.5z" />
    <glyph glyph-name="uni04E2" unicode="&#x4e2;" horiz-adv-x="794" 
d="M175 0h-81v710h93v-552l432 552h80v-710h-92v553zM245 805v69h322v-69h-322z" />
    <glyph glyph-name="uni04E3" unicode="&#x4e3;" horiz-adv-x="607" 
d="M158 0h-77v500h86v-367l282 367h76v-500h-85v367zM150 641v69h322v-69h-322z" />
    <glyph glyph-name="uni04E8" unicode="&#x4e8;" horiz-adv-x="825" 
d="M412 76q117 0 195.5 81t78.5 198t-78.5 198t-195.5 81q-116 0 -194.5 -81t-78.5 -198t78.5 -198t194.5 -81zM412 -12q-153 0 -260 106.5t-107 260.5t107 260.5t260 106.5q154 0 260.5 -106.5t106.5 -260.5t-106.5 -260.5t-260.5 -106.5zM92 398v-85h640v85h-640z" />
    <glyph glyph-name="uni04E9" unicode="&#x4e9;" horiz-adv-x="606" 
d="M303 -10q-113 0 -187.5 75.5t-74.5 184.5t74.5 184.5t187.5 75.5q112 0 186.5 -75.5t74.5 -184.5t-74.5 -184.5t-186.5 -75.5zM303 70q77 0 125 52t48 128t-48 128t-125 52t-125.5 -52t-48.5 -128t48.5 -128t125.5 -52zM102 284v-68h402v68h-402z" />
    <glyph glyph-name="uni04EE" unicode="&#x4ee;" horiz-adv-x="698" 
d="M134 -6v85q23 -4 61 -4q69 0 109 77l9 17l-278 541h105l226 -441l233 441h101l-299 -566q-46 -87 -89 -121.5t-107 -34.5q-31 0 -71 6zM208 805v69h322v-69h-322z" />
    <glyph glyph-name="uni04EF" unicode="&#x4ef;" horiz-adv-x="548" 
d="M542 500l-271 -589q-31 -69 -69.5 -99.5t-96.5 -30.5q-37 0 -56 5v76q15 -3 49 -3q56 0 90 76l41 88l-221 477h95l173 -377l170 377h96zM114 641v69h322v-69h-322z" />
    <glyph glyph-name="Wgrave" unicode="&#x1e80;" horiz-adv-x="947" 
d="M647 0l-174 482l-173 -482h-83l-194 710h97l148 -554l205 566l205 -566l149 554h97l-194 -710h-83zM507 770h-72l-114 157h108z" />
    <glyph glyph-name="wgrave" unicode="&#x1e81;" horiz-adv-x="763" 
d="M505 0l-124 359l-123 -359h-76l-170 500h90l121 -365l125 365h66l125 -365l121 365h91l-170 -500h-76zM343 560l-134 190h110l94 -190h-70z" />
    <glyph glyph-name="Wacute" unicode="&#x1e82;" horiz-adv-x="947" 
d="M647 0l-174 482l-173 -482h-83l-194 710h97l148 -554l205 566l205 -566l149 554h97l-194 -710h-83zM446 770l78 157h108l-114 -157h-72z" />
    <glyph glyph-name="wacute" unicode="&#x1e83;" horiz-adv-x="763" 
d="M505 0l-124 359l-123 -359h-76l-170 500h90l121 -365l125 365h66l125 -365l121 365h91l-170 -500h-76zM351 560l93 190h110l-134 -190h-69z" />
    <glyph glyph-name="Wdieresis" unicode="&#x1e84;" horiz-adv-x="947" 
d="M647 0l-174 482l-173 -482h-83l-194 710h97l148 -554l205 566l205 -566l149 554h97l-194 -710h-83zM361 785q-25 0 -42 17t-17 41t17 41.5t42 17.5q24 0 41 -17.5t17 -41.5t-17 -41t-41 -17zM586 785q-24 0 -41.5 17t-17.5 41t17.5 41.5t41.5 17.5t41 -17.5t17 -41.5
t-17 -41t-41 -17z" />
    <glyph glyph-name="wdieresis" unicode="&#x1e85;" horiz-adv-x="763" 
d="M505 0l-124 359l-123 -359h-76l-170 500h90l121 -365l125 365h66l125 -365l121 365h91l-170 -500h-76zM269 596q-25 0 -42 17t-17 41t17 41.5t42 17.5q24 0 41 -17.5t17 -41.5t-17 -41t-41 -17zM494 596q-24 0 -41.5 17t-17.5 41t17.5 41.5t41.5 17.5t41 -17.5t17 -41.5
t-17 -41t-41 -17z" />
    <glyph glyph-name="uni1E9E" unicode="&#x1e9e;" horiz-adv-x="634" 
d="M94 0v710h441v-61l-133 -204q186 -33 186 -217q0 -110 -70 -169t-185 -59h-37v88h44q70 0 113 36.5t43 103.5t-43 103.5t-113 36.5h-44v70l123 188h-232v-626h-93z" />
    <glyph glyph-name="uni1ECA" unicode="&#x1eca;" horiz-adv-x="281" 
d="M94 0v710h93v-710h-93zM141 -190q-25 0 -42 17t-17 41t17 41.5t42 17.5q24 0 41 -17.5t17 -41.5t-17 -41t-41 -17z" />
    <glyph glyph-name="uni1ECB" unicode="&#x1ecb;" horiz-adv-x="249" 
d="M125 634q-26 0 -44 17.5t-18 43.5q0 25 18 43t44 18t43 -18t17 -43q0 -26 -17 -43.5t-43 -17.5zM81 0v500h86v-500h-86zM125 -190q-25 0 -42 17t-17 41t17 41.5t42 17.5q24 0 41 -17.5t17 -41.5t-17 -41t-41 -17z" />
    <glyph glyph-name="uni1ECC" unicode="&#x1ecc;" horiz-adv-x="825" 
d="M412 76q117 0 195.5 81t78.5 198t-78.5 198t-195.5 81q-116 0 -194.5 -81t-78.5 -198t78.5 -198t194.5 -81zM412 -12q-153 0 -260 106.5t-107 260.5t107 260.5t260 106.5q154 0 260.5 -106.5t106.5 -260.5t-106.5 -260.5t-260.5 -106.5zM412 -190q-25 0 -42 17t-17 41
t17 41.5t42 17.5q24 0 41 -17.5t17 -41.5t-17 -41t-41 -17z" />
    <glyph glyph-name="uni1ECD" unicode="&#x1ecd;" horiz-adv-x="606" 
d="M303 -10q-113 0 -187.5 75.5t-74.5 184.5t74.5 184.5t187.5 75.5q112 0 186.5 -75.5t74.5 -184.5t-74.5 -184.5t-186.5 -75.5zM303 70q77 0 125 52t48 128t-48 128t-125 52t-125.5 -52t-48.5 -128t48.5 -128t125.5 -52zM303 -190q-25 0 -42 17t-17 41t17 41.5t42 17.5
q24 0 41 -17.5t17 -41.5t-17 -41t-41 -17z" />
    <glyph glyph-name="uni1EE4" unicode="&#x1ee4;" horiz-adv-x="726" 
d="M363 -12q-124 0 -201 78.5t-77 209.5v434h93v-436q0 -95 50 -146.5t135 -51.5t135 51.5t50 146.5v436h93v-434q0 -131 -77 -209.5t-201 -78.5zM363 -190q-25 0 -42 17t-17 41t17 41.5t42 17.5q24 0 41 -17.5t17 -41.5t-17 -41t-41 -17z" />
    <glyph glyph-name="uni1EE5" unicode="&#x1ee5;" horiz-adv-x="579" 
d="M258 -10q-82 0 -133 55.5t-51 147.5v307h86v-294q0 -63 30.5 -100t82.5 -37q60 0 99.5 49.5t39.5 133.5v248h86v-500h-86v77q-49 -87 -154 -87zM286 -190q-25 0 -42 17t-17 41t17 41.5t42 17.5q24 0 41 -17.5t17 -41.5t-17 -41t-41 -17z" />
    <glyph glyph-name="Ygrave" unicode="&#x1ef2;" horiz-adv-x="674" 
d="M291 0v301l-276 409h111l211 -316l212 316h111l-277 -410v-300h-92zM370 770h-72l-114 157h108z" />
    <glyph glyph-name="ygrave" unicode="&#x1ef3;" horiz-adv-x="547" 
d="M214 -209h-96l109 235l-219 474h95l172 -380l171 380h96zM237 560l-134 190h110l94 -190h-70z" />
    <glyph glyph-name="uni2007" unicode="&#x2007;" horiz-adv-x="590" 
 />
    <glyph glyph-name="uni2008" unicode="&#x2008;" horiz-adv-x="252" 
 />
    <glyph glyph-name="uni2009" unicode="&#x2009;" horiz-adv-x="125" 
 />
    <glyph glyph-name="uni200B" unicode="&#x200b;" 
 />
    <glyph glyph-name="endash" unicode="&#x2013;" horiz-adv-x="565" 
d="M65 237v86h434v-86h-434z" />
    <glyph glyph-name="emdash" unicode="&#x2014;" horiz-adv-x="635" 
d="M65 237v86h505v-86h-505z" />
    <glyph glyph-name="quoteleft" unicode="&#x2018;" horiz-adv-x="251" 
d="M54 545l104 165h57l-67 -143q41 -21 41 -67q0 -30 -22 -52.5t-52 -22.5q-32 0 -53 22t-21 53q0 25 13 45z" />
    <glyph glyph-name="quoteright" unicode="&#x2019;" horiz-adv-x="254" 
d="M209 602l-103 -165h-58l67 143q-18 9 -29.5 27.5t-11.5 39.5q0 31 21.5 53t53.5 22q31 0 52.5 -22t21.5 -53q0 -22 -14 -45z" />
    <glyph glyph-name="quotesinglbase" unicode="&#x201a;" horiz-adv-x="256" 
d="M188 22l-103 -165h-57l67 143q-41 20 -41 67q0 30 22 52.5t52 22.5t52 -22.5t22 -52.5q0 -22 -14 -45z" />
    <glyph glyph-name="quotedblleft" unicode="&#x201c;" horiz-adv-x="436" 
d="M54 545l104 165h57l-67 -143q41 -21 41 -67q0 -30 -22 -52.5t-52 -22.5q-32 0 -53 22t-21 53q0 25 13 45zM240 545l104 165h57l-67 -143q41 -21 41 -67q0 -30 -22 -52.5t-52 -22.5q-32 0 -53 22t-21 53q0 25 13 45z" />
    <glyph glyph-name="quotedblright" unicode="&#x201d;" horiz-adv-x="440" 
d="M209 602l-103 -165h-58l67 143q-18 9 -29.5 27.5t-11.5 39.5q0 31 21.5 53t53.5 22q31 0 52.5 -22t21.5 -53q0 -22 -14 -45zM395 602l-103 -165h-58l67 143q-18 9 -29.5 27.5t-11.5 39.5q0 31 21.5 53t53.5 22q31 0 52.5 -22t21.5 -53q0 -22 -14 -45z" />
    <glyph glyph-name="quotedblbase" unicode="&#x201e;" horiz-adv-x="442" 
d="M188 22l-103 -165h-57l67 143q-41 20 -41 67q0 30 22 52.5t52 22.5t52 -22.5t22 -52.5q0 -22 -14 -45zM374 22l-103 -165h-57l67 143q-41 20 -41 67q0 30 22 52.5t52 22.5t52 -22.5t22 -52.5q0 -22 -14 -45z" />
    <glyph glyph-name="dagger" unicode="&#x2020;" horiz-adv-x="506" 
d="M214 -98v523h-185v75h185v210h78v-210h185v-75h-185v-523h-78z" />
    <glyph glyph-name="daggerdbl" unicode="&#x2021;" horiz-adv-x="538" 
d="M493 112h-184v-210h-79v210h-185v75h185v238h-185v75h185v210h79v-210h184v-75h-184v-238h184v-75z" />
    <glyph glyph-name="bullet" unicode="&#x2022;" horiz-adv-x="419" 
d="M209 166q-56 0 -96 39.5t-40 96.5t40 96.5t96 39.5q57 0 97 -39.5t40 -96.5t-40 -96.5t-97 -39.5z" />
    <glyph glyph-name="ellipsis" unicode="&#x2026;" horiz-adv-x="721" 
d="M360 -8q-31 0 -52.5 22t-21.5 53q0 30 22 52.5t52 22.5t52 -22.5t22 -52.5q0 -31 -21.5 -53t-52.5 -22zM601 -8q-31 0 -52.5 22t-21.5 53q0 30 22 52.5t52 22.5t52 -22.5t22 -52.5q0 -31 -21.5 -53t-52.5 -22zM121 -8q-31 0 -52.5 22t-21.5 53q0 30 22 52.5t52 22.5
t52 -22.5t22 -52.5q0 -31 -21.5 -53t-52.5 -22z" />
    <glyph glyph-name="perthousand" unicode="&#x2030;" horiz-adv-x="1413" 
d="M1185 -8q-82 0 -139.5 58t-57.5 139q0 82 57.5 139.5t139.5 57.5q81 0 139 -57.5t58 -139.5q0 -81 -58 -139t-139 -58zM1185 70q48 0 83 35.5t35 83.5t-35 83.5t-83 35.5q-49 0 -84 -35.5t-35 -83.5t35 -83.5t84 -35.5zM317 0h-93l450 710h93zM762 -8q-82 0 -139.5 58
t-57.5 139q0 82 57.5 139.5t139.5 57.5q81 0 139 -57.5t58 -139.5q0 -81 -58 -139t-139 -58zM762 70q48 0 83 35.5t35 83.5t-35 83.5t-83 35.5q-50 0 -84 -35t-34 -84t34 -84t84 -35zM229 324q-82 0 -139.5 58t-57.5 139q0 82 57.5 139.5t139.5 57.5q81 0 139 -57.5
t58 -139.5q0 -81 -58 -139t-139 -58zM229 402q48 0 83 35.5t35 83.5t-35 83.5t-83 35.5q-50 0 -84 -35t-34 -84t34 -84t84 -35z" />
    <glyph glyph-name="guilsinglleft" unicode="&#x2039;" horiz-adv-x="304" 
d="M43 250l141 217h73l-116 -217l116 -217h-73z" />
    <glyph glyph-name="guilsinglright" unicode="&#x203a;" horiz-adv-x="304" 
d="M120 467l141 -217l-141 -217h-73l116 217l-116 217h73z" />
    <glyph glyph-name="fraction" unicode="&#x2044;" horiz-adv-x="180" 
d="M-119 0h-81l500 710h81z" />
    <glyph glyph-name="uni2060" unicode="&#x2060;" horiz-adv-x="250" 
 />
    <glyph glyph-name="uni2070" unicode="&#x2070;" horiz-adv-x="390" 
d="M196 404q-69 0 -113.5 47t-44.5 119v112q0 74 44 120.5t114 46.5q69 0 113 -47t44 -120v-112q0 -72 -44 -119t-113 -47zM196 472q39 0 63 26.5t24 71.5v112q0 46 -24 72t-63 26q-40 0 -64.5 -26t-24.5 -72v-112q0 -45 24.5 -71.5t64.5 -26.5z" />
    <glyph glyph-name="uni2074" unicode="&#x2074;" horiz-adv-x="390" 
d="M240 410v107h-221v56l228 269h63v-261h58v-64h-58v-107h-70zM105 581h135v157z" />
    <glyph glyph-name="uni2075" unicode="&#x2075;" horiz-adv-x="348" 
d="M175 404q-60 0 -104.5 36.5t-46.5 90.5h71q7 -26 28.5 -42.5t52.5 -16.5q33 0 54.5 22.5t21.5 55.5t-21.5 55.5t-54.5 22.5q-53 0 -74 -44l-63 19l45 239h208v-68h-152l-20 -99q25 17 67 17q60 0 97.5 -40.5t37.5 -102.5q0 -65 -40.5 -105t-106.5 -40z" />
    <glyph glyph-name="uni2076" unicode="&#x2076;" horiz-adv-x="343" 
d="M169 404q-65 0 -107 42t-42 102q0 32 11.5 56t38.5 58l141 180h87l-120 -153h5q53 0 94 -39.5t41 -99.5q0 -62 -42 -104t-107 -42zM169 471q33 0 55.5 22.5t22.5 55.5t-22.5 56t-55.5 23t-55.5 -23t-22.5 -56t22.5 -55.5t55.5 -22.5z" />
    <glyph glyph-name="uni2077" unicode="&#x2077;" horiz-adv-x="334" 
d="M118 410h-79l198 364h-210v68h293v-60z" />
    <glyph glyph-name="uni2078" unicode="&#x2078;" horiz-adv-x="361" 
d="M180 404q-64 0 -106.5 38.5t-42.5 97.5q0 73 61 109q-40 31 -40 86q0 49 36 81.5t92 32.5q57 0 92.5 -32.5t35.5 -81.5q0 -55 -40 -86q62 -37 62 -109q0 -60 -42 -98t-108 -38zM180 468q37 0 57.5 21.5t20.5 52.5t-21 52.5t-56 21.5q-36 0 -57.5 -21.5t-21.5 -52.5
q0 -30 21.5 -52t56.5 -22zM180 674q28 0 45 16t17 40t-17.5 40t-44.5 16q-26 0 -43 -16t-17 -40t17 -40t43 -16z" />
    <glyph glyph-name="uni2079" unicode="&#x2079;" horiz-adv-x="343" 
d="M44 410l120 154h-4q-53 0 -94 39.5t-41 99.5q0 63 41 104.5t107 41.5t108 -42t42 -102q0 -33 -12 -57.5t-38 -57.5l-142 -180h-87zM173 624q35 0 57 23t22 56q0 34 -22 56.5t-57 22.5q-33 0 -55 -23t-22 -56t22 -56t55 -23z" />
    <glyph glyph-name="uni2080" unicode="&#x2080;" horiz-adv-x="390" 
d="M196 -120q-69 0 -113.5 47t-44.5 119v112q0 74 44 120.5t114 46.5q69 0 113 -47t44 -120v-112q0 -72 -44 -119t-113 -47zM196 -52q39 0 63 26.5t24 71.5v112q0 46 -24 72t-63 26q-40 0 -64.5 -26t-24.5 -72v-112q0 -45 24.5 -71.5t64.5 -26.5z" />
    <glyph glyph-name="uni2081" unicode="&#x2081;" horiz-adv-x="229" 
d="M98 -114v363h-87l52 69h105v-432h-70z" />
    <glyph glyph-name="uni2082" unicode="&#x2082;" horiz-adv-x="353" 
d="M319 -46v-68h-287v25q0 17 4 33.5t8.5 28.5t16 26t17.5 22t22.5 21t22.5 17.5t26 18t24 16.5q38 28 55 49t17 50q0 28 -18.5 45.5t-48.5 17.5q-33 0 -54 -19.5t-21 -51.5h-71q0 62 42 101t105 39q57 0 96.5 -34t39.5 -96q0 -49 -22 -82t-72 -70q-6 -4 -28 -19
t-31.5 -22.5t-21.5 -21t-16 -26.5h195z" />
    <glyph glyph-name="uni2083" unicode="&#x2083;" horiz-adv-x="365" 
d="M186 -120q-65 0 -111 39t-46 103h69q3 -35 27.5 -54.5t61.5 -19.5q33 0 53.5 17t20.5 47q0 32 -22 49.5t-59 17.5h-34v60h34q32 0 50 16t19 43q1 26 -18 42t-47 16q-33 0 -55 -19.5t-22 -51.5h-70q0 64 43 102t104 38q62 0 99 -34t37 -89q-1 -62 -52 -93q64 -28 64 -101
q0 -57 -40.5 -92.5t-105.5 -35.5z" />
    <glyph glyph-name="uni2084" unicode="&#x2084;" horiz-adv-x="390" 
d="M240 -114v107h-221v56l228 269h63v-261h58v-64h-58v-107h-70zM105 57h135v157z" />
    <glyph glyph-name="uni2085" unicode="&#x2085;" horiz-adv-x="348" 
d="M175 -120q-60 0 -104.5 36.5t-46.5 90.5h71q7 -26 28.5 -42.5t52.5 -16.5q33 0 54.5 22.5t21.5 55.5t-21.5 55.5t-54.5 22.5q-53 0 -74 -44l-63 19l45 239h208v-68h-152l-20 -99q25 17 67 17q60 0 97.5 -40.5t37.5 -102.5q0 -65 -40.5 -105t-106.5 -40z" />
    <glyph glyph-name="uni2086" unicode="&#x2086;" horiz-adv-x="343" 
d="M169 -120q-65 0 -107 42t-42 102q0 32 11.5 56t38.5 58l141 180h87l-120 -153h5q53 0 94 -39.5t41 -99.5q0 -62 -42 -104t-107 -42zM169 -53q33 0 55.5 22.5t22.5 55.5t-22.5 56t-55.5 23t-55.5 -23t-22.5 -56t22.5 -55.5t55.5 -22.5z" />
    <glyph glyph-name="uni2087" unicode="&#x2087;" horiz-adv-x="334" 
d="M118 -114h-79l198 364h-210v68h293v-60z" />
    <glyph glyph-name="uni2088" unicode="&#x2088;" horiz-adv-x="361" 
d="M180 -120q-64 0 -106.5 38.5t-42.5 97.5q0 73 61 109q-40 31 -40 86q0 49 36 81.5t92 32.5q57 0 92.5 -32.5t35.5 -81.5q0 -55 -40 -86q62 -37 62 -109q0 -60 -42 -98t-108 -38zM180 -56q37 0 57.5 21.5t20.5 52.5t-21 52.5t-56 21.5q-36 0 -57.5 -21.5t-21.5 -52.5
q0 -30 21.5 -52t56.5 -22zM180 150q28 0 45 16t17 40t-17.5 40t-44.5 16q-26 0 -43 -16t-17 -40t17 -40t43 -16z" />
    <glyph glyph-name="uni2089" unicode="&#x2089;" horiz-adv-x="343" 
d="M44 -114l120 154h-4q-53 0 -94 39.5t-41 99.5q0 63 41 104.5t107 41.5t108 -42t42 -102q0 -33 -12 -57.5t-38 -57.5l-142 -180h-87zM173 100q35 0 57 23t22 56q0 34 -22 56.5t-57 22.5q-33 0 -55 -23t-22 -56t22 -56t55 -23z" />
    <glyph glyph-name="Euro" unicode="&#x20ac;" horiz-adv-x="894" 
d="M148 404h-115l26 55h100q32 118 129 190.5t225 72.5q115 0 205 -59.5t132 -162.5h-95q-36 65 -99 101.5t-143 36.5q-94 0 -163.5 -48.5t-100.5 -130.5h420l-25 -55h-409q-4 -21 -4 -49q0 -25 3 -47h364l-24 -54h-327q30 -83 100.5 -132.5t165.5 -49.5q80 0 143 36.5
t99 101.5h95q-42 -103 -132 -162.5t-205 -59.5q-127 0 -225 73.5t-130 192.5h-125l26 54h88q-2 10 -2 47q0 25 3 49z" />
    <glyph glyph-name="uni20B4" unicode="&#x20b4;" horiz-adv-x="597" 
d="M48 268v55h497v-55h-346q-37 -30 -37 -83q0 -51 39.5 -84.5t99.5 -33.5q61 0 96 34t41 97h86q-6 -102 -67.5 -156t-155.5 -54q-98 0 -161.5 52.5t-63.5 136.5q0 54 27 91h-55zM48 392v55h345q38 30 38 84q0 51 -31.5 81.5t-90.5 30.5q-51 0 -86.5 -28.5t-45.5 -74.5h-86
q10 79 69 130.5t150 51.5q93 0 150 -50t57 -132q0 -59 -27 -93h55v-55h-497z" />
    <glyph glyph-name="uni20B8" unicode="&#x20b8;" horiz-adv-x="601" 
d="M258 0v501h-224v85h533v-85h-223v-501h-86zM34 655v55h533v-55h-533z" />
    <glyph glyph-name="uni20BD" unicode="&#x20bd;" horiz-adv-x="615" 
d="M51 279v84h87v347h205q110 0 174.5 -58.5t64.5 -155.5t-64.5 -157t-174.5 -60h-119v-80h207v-55h-207v-144h-86v144h-87v55h87v80h-87zM224 363h117q72 0 110.5 35.5t38.5 97.5q0 61 -38.5 95.5t-110.5 34.5h-117v-263z" />
    <glyph glyph-name="uni2116" unicode="&#x2116;" horiz-adv-x="1112" 
d="M699 0h-80l-432 553v-553h-93v710h81l432 -553v553h92v-710zM916 405q-63 0 -108.5 46t-45.5 109t45.5 109t108.5 46t109 -46t46 -109t-46 -109t-109 -46zM916 471q37 0 63 26t26 63t-26 63t-63 26q-36 0 -61.5 -26t-25.5 -63t25.5 -63t61.5 -26zM767 293v66h299v-66
h-299z" />
    <glyph glyph-name="uni2117" unicode="&#x2117;" horiz-adv-x="824" 
d="M411 -12q-151 0 -258.5 108t-107.5 259t107.5 259t258.5 108q152 0 260 -107.5t108 -259.5t-108 -259.5t-260 -107.5zM411 59q122 0 209.5 87t87.5 209t-87.5 209t-209.5 87q-121 0 -208 -87t-87 -209t87 -209t208 -87zM564 417q0 -52 -36.5 -87.5t-92.5 -35.5h-51v-125
h-71v373h122q56 0 92.5 -36t36.5 -89zM496 417q0 25 -17.5 41.5t-44.5 16.5h-50v-115h50q27 0 44.5 16.5t17.5 40.5z" />
    <glyph glyph-name="trademark" unicode="&#x2122;" horiz-adv-x="838" 
d="M395 325v385h68l113 -161l114 161h68v-385h-70v265l-111 -158l-112 158v-265h-70zM146 325v315h-112v70h296v-70h-112v-315h-72z" />
    <glyph glyph-name="uni2150" unicode="&#x2150;" horiz-adv-x="780" 
d="M98 278v363h-87l52 69h105v-432h-70zM125 0h-81l500 710h81zM565 1h-79l198 364h-210v68h293v-60z" />
    <glyph glyph-name="uni2151" unicode="&#x2151;" horiz-adv-x="767" 
d="M98 278v363h-87l52 69h105v-432h-70zM125 0h-81l500 710h81zM468 1l120 154h-4q-53 0 -94 39.5t-41 99.5q0 63 41 104.5t107 41.5t108 -42t42 -102q0 -33 -12 -57.5t-38 -57.5l-142 -180h-87zM597 215q35 0 57 23t22 56q0 34 -22 56.5t-57 22.5q-33 0 -55 -23t-22 -56
t22 -56t55 -23z" />
    <glyph glyph-name="uni2152" unicode="&#x2152;" horiz-adv-x="1043" 
d="M98 278v363h-87l52 69h105v-432h-70zM125 0h-81l500 710h81zM523 1v363h-87l52 69h105v-432h-70zM849 -5q-69 0 -113.5 47t-44.5 119v112q0 74 44 120.5t114 46.5q69 0 113 -47t44 -120v-112q0 -72 -44 -119t-113 -47zM849 63q39 0 63 26.5t24 71.5v112q0 46 -24 72
t-63 26q-40 0 -64.5 -26t-24.5 -72v-112q0 -45 24.5 -71.5t64.5 -26.5z" />
    <glyph glyph-name="onethird" unicode="&#x2153;" horiz-adv-x="789" 
d="M98 278v363h-87l52 69h105v-432h-70zM125 0h-81l500 710h81zM610 -5q-65 0 -111 39t-46 103h69q3 -35 27.5 -54.5t61.5 -19.5q33 0 53.5 17t20.5 47q0 32 -22 49.5t-59 17.5h-34v60h34q32 0 50 16t19 43q1 26 -18 42t-47 16q-33 0 -55 -19.5t-22 -51.5h-70q0 64 43 102
t104 38q62 0 99 -34t37 -89q-1 -62 -52 -93q64 -28 64 -101q0 -57 -40.5 -92.5t-105.5 -35.5z" />
    <glyph glyph-name="twothirds" unicode="&#x2154;" horiz-adv-x="903" 
d="M319 346v-68h-287v25q0 17 4 33.5t8.5 28.5t16 26t17.5 22t22.5 21t22.5 17.5t26 18t24 16.5q38 28 55 49t17 50q0 28 -18.5 45.5t-48.5 17.5q-33 0 -54 -19.5t-21 -51.5h-71q0 62 42 101t105 39q57 0 96.5 -34t39.5 -96q0 -49 -22 -82t-72 -70q-6 -4 -28 -19
t-31.5 -22.5t-21.5 -21t-16 -26.5h195zM239 0h-81l500 710h81zM724 -5q-65 0 -111 39t-46 103h69q3 -35 27.5 -54.5t61.5 -19.5q33 0 53.5 17t20.5 47q0 32 -22 49.5t-59 17.5h-34v60h34q32 0 50 16t19 43q1 26 -18 42t-47 16q-33 0 -55 -19.5t-22 -51.5h-70q0 64 43 102
t104 38q62 0 99 -34t37 -89q-1 -62 -52 -93q64 -28 64 -101q0 -57 -40.5 -92.5t-105.5 -35.5z" />
    <glyph glyph-name="uni2155" unicode="&#x2155;" horiz-adv-x="773" 
d="M98 278v363h-87l52 69h105v-432h-70zM125 0h-81l500 710h81zM599 -5q-60 0 -104.5 36.5t-46.5 90.5h71q7 -26 28.5 -42.5t52.5 -16.5q33 0 54.5 22.5t21.5 55.5t-21.5 55.5t-54.5 22.5q-53 0 -74 -44l-63 19l45 239h208v-68h-152l-20 -99q25 17 67 17q60 0 97.5 -40.5
t37.5 -102.5q0 -65 -40.5 -105t-106.5 -40z" />
    <glyph glyph-name="uni2156" unicode="&#x2156;" horiz-adv-x="887" 
d="M319 346v-68h-287v25q0 17 4 33.5t8.5 28.5t16 26t17.5 22t22.5 21t22.5 17.5t26 18t24 16.5q38 28 55 49t17 50q0 28 -18.5 45.5t-48.5 17.5q-33 0 -54 -19.5t-21 -51.5h-71q0 62 42 101t105 39q57 0 96.5 -34t39.5 -96q0 -49 -22 -82t-72 -70q-6 -4 -28 -19
t-31.5 -22.5t-21.5 -21t-16 -26.5h195zM239 0h-81l500 710h81zM713 -5q-60 0 -104.5 36.5t-46.5 90.5h71q7 -26 28.5 -42.5t52.5 -16.5q33 0 54.5 22.5t21.5 55.5t-21.5 55.5t-54.5 22.5q-53 0 -74 -44l-63 19l45 239h208v-68h-152l-20 -99q25 17 67 17q60 0 97.5 -40.5
t37.5 -102.5q0 -65 -40.5 -105t-106.5 -40z" />
    <glyph glyph-name="uni2157" unicode="&#x2157;" horiz-adv-x="893" 
d="M186 272q-65 0 -111 39t-46 103h69q3 -35 27.5 -54.5t61.5 -19.5q33 0 53.5 17t20.5 47q0 32 -22 49.5t-59 17.5h-34v60h34q32 0 50 16t19 43q1 26 -18 42t-47 16q-33 0 -55 -19.5t-22 -51.5h-70q0 64 43 102t104 38q62 0 99 -34t37 -89q-1 -62 -52 -93q64 -28 64 -101
q0 -57 -40.5 -92.5t-105.5 -35.5zM246 0h-81l500 710h81zM720 -5q-60 0 -104.5 36.5t-46.5 90.5h71q7 -26 28.5 -42.5t52.5 -16.5q33 0 54.5 22.5t21.5 55.5t-21.5 55.5t-54.5 22.5q-53 0 -74 -44l-63 19l45 239h208v-68h-152l-20 -99q25 17 67 17q60 0 97.5 -40.5
t37.5 -102.5q0 -65 -40.5 -105t-106.5 -40z" />
    <glyph glyph-name="uni2158" unicode="&#x2158;" horiz-adv-x="919" 
d="M240 278v107h-221v56l228 269h63v-261h58v-64h-58v-107h-70zM105 449h135v157zM271 0h-81l500 710h81zM745 -5q-60 0 -104.5 36.5t-46.5 90.5h71q7 -26 28.5 -42.5t52.5 -16.5q33 0 54.5 22.5t21.5 55.5t-21.5 55.5t-54.5 22.5q-53 0 -74 -44l-63 19l45 239h208v-68h-152
l-20 -99q25 17 67 17q60 0 97.5 -40.5t37.5 -102.5q0 -65 -40.5 -105t-106.5 -40z" />
    <glyph glyph-name="uni2159" unicode="&#x2159;" horiz-adv-x="724" 
d="M98 278v363h-87l52 69h105v-432h-70zM125 0h-81l500 710h81zM550 -5q-65 0 -107 42t-42 102q0 32 11.5 56t38.5 58l141 180h87l-120 -153h5q53 0 94 -39.5t41 -99.5q0 -62 -42 -104t-107 -42zM550 62q33 0 55.5 22.5t22.5 55.5t-22.5 56t-55.5 23t-55.5 -23t-22.5 -56
t22.5 -55.5t55.5 -22.5z" />
    <glyph glyph-name="uni215A" unicode="&#x215a;" horiz-adv-x="828" 
d="M175 272q-60 0 -104.5 36.5t-46.5 90.5h71q7 -26 28.5 -42.5t52.5 -16.5q33 0 54.5 22.5t21.5 55.5t-21.5 55.5t-54.5 22.5q-53 0 -74 -44l-63 19l45 239h208v-68h-152l-20 -99q25 17 67 17q60 0 97.5 -40.5t37.5 -102.5q0 -65 -40.5 -105t-106.5 -40zM229 0h-81l500 710
h81zM654 -5q-65 0 -107 42t-42 102q0 32 11.5 56t38.5 58l141 180h87l-120 -153h5q53 0 94 -39.5t41 -99.5q0 -62 -42 -104t-107 -42zM654 62q33 0 55.5 22.5t22.5 55.5t-22.5 56t-55.5 23t-55.5 -23t-22.5 -56t22.5 -55.5t55.5 -22.5z" />
    <glyph glyph-name="oneeighth" unicode="&#x215b;" horiz-adv-x="785" 
d="M98 278v363h-87l52 69h105v-432h-70zM125 0h-81l500 710h81zM604 -5q-64 0 -106.5 38.5t-42.5 97.5q0 73 61 109q-40 31 -40 86q0 49 36 81.5t92 32.5q57 0 92.5 -32.5t35.5 -81.5q0 -55 -40 -86q62 -37 62 -109q0 -60 -42 -98t-108 -38zM604 59q37 0 57.5 21.5
t20.5 52.5t-21 52.5t-56 21.5q-36 0 -57.5 -21.5t-21.5 -52.5q0 -30 21.5 -52t56.5 -22zM604 265q28 0 45 16t17 40t-17.5 40t-44.5 16q-26 0 -43 -16t-17 -40t17 -40t43 -16z" />
    <glyph glyph-name="threeeighths" unicode="&#x215c;" horiz-adv-x="906" 
d="M186 272q-65 0 -111 39t-46 103h69q3 -35 27.5 -54.5t61.5 -19.5q33 0 53.5 17t20.5 47q0 32 -22 49.5t-59 17.5h-34v60h34q32 0 50 16t19 43q1 26 -18 42t-47 16q-33 0 -55 -19.5t-22 -51.5h-70q0 64 43 102t104 38q62 0 99 -34t37 -89q-1 -62 -52 -93q64 -28 64 -101
q0 -57 -40.5 -92.5t-105.5 -35.5zM246 0h-81l500 710h81zM725 -5q-64 0 -106.5 38.5t-42.5 97.5q0 73 61 109q-40 31 -40 86q0 49 36 81.5t92 32.5q57 0 92.5 -32.5t35.5 -81.5q0 -55 -40 -86q62 -37 62 -109q0 -60 -42 -98t-108 -38zM725 59q37 0 57.5 21.5t20.5 52.5
t-21 52.5t-56 21.5q-36 0 -57.5 -21.5t-21.5 -52.5q0 -30 21.5 -52t56.5 -22zM725 265q28 0 45 16t17 40t-17.5 40t-44.5 16q-26 0 -43 -16t-17 -40t17 -40t43 -16z" />
    <glyph glyph-name="fiveeighths" unicode="&#x215d;" horiz-adv-x="889" 
d="M175 272q-60 0 -104.5 36.5t-46.5 90.5h71q7 -26 28.5 -42.5t52.5 -16.5q33 0 54.5 22.5t21.5 55.5t-21.5 55.5t-54.5 22.5q-53 0 -74 -44l-63 19l45 239h208v-68h-152l-20 -99q25 17 67 17q60 0 97.5 -40.5t37.5 -102.5q0 -65 -40.5 -105t-106.5 -40zM229 0h-81l500 710
h81zM708 -5q-64 0 -106.5 38.5t-42.5 97.5q0 73 61 109q-40 31 -40 86q0 49 36 81.5t92 32.5q57 0 92.5 -32.5t35.5 -81.5q0 -55 -40 -86q62 -37 62 -109q0 -60 -42 -98t-108 -38zM708 59q37 0 57.5 21.5t20.5 52.5t-21 52.5t-56 21.5q-36 0 -57.5 -21.5t-21.5 -52.5
q0 -30 21.5 -52t56.5 -22zM708 265q28 0 45 16t17 40t-17.5 40t-44.5 16q-26 0 -43 -16t-17 -40t17 -40t43 -16z" />
    <glyph glyph-name="seveneighths" unicode="&#x215e;" horiz-adv-x="818" 
d="M118 278h-79l198 364h-210v68h293v-60zM158 0h-81l500 710h81zM637 -5q-64 0 -106.5 38.5t-42.5 97.5q0 73 61 109q-40 31 -40 86q0 49 36 81.5t92 32.5q57 0 92.5 -32.5t35.5 -81.5q0 -55 -40 -86q62 -37 62 -109q0 -60 -42 -98t-108 -38zM637 59q37 0 57.5 21.5
t20.5 52.5t-21 52.5t-56 21.5q-36 0 -57.5 -21.5t-21.5 -52.5q0 -30 21.5 -52t56.5 -22zM637 265q28 0 45 16t17 40t-17.5 40t-44.5 16q-26 0 -43 -16t-17 -40t17 -40t43 -16z" />
    <glyph glyph-name="uni215F" unicode="&#x215f;" horiz-adv-x="424" 
d="M98 278v363h-87l52 69h105v-432h-70zM125 0h-81l500 710h81z" />
    <glyph glyph-name="arrowleft" unicode="&#x2190;" horiz-adv-x="821" 
d="M349 -56l-306 306l306 306l48 -51l-219 -219h585v-72h-585l219 -220z" />
    <glyph glyph-name="arrowup" unicode="&#x2191;" horiz-adv-x="704" 
d="M316 0v587l-220 -220l-50 49l306 306l306 -306l-51 -49l-219 220v-587h-72z" />
    <glyph glyph-name="arrowright" unicode="&#x2192;" horiz-adv-x="821" 
d="M472 -56l-49 50l220 220h-585v72h585l-220 220l49 50l306 -306z" />
    <glyph glyph-name="arrowdown" unicode="&#x2193;" horiz-adv-x="701" 
d="M657 294l-306 -306l-306 306l49 49l221 -220v587h72v-587l219 220z" />
    <glyph glyph-name="uni2196" unicode="&#x2196;" horiz-adv-x="732" 
d="M686 38l-50 -50l-464 464v-312h-70v432h433v-70h-313z" />
    <glyph glyph-name="uni2197" unicode="&#x2197;" horiz-adv-x="732" 
d="M96 -12l-51 50l465 464h-313v70h433v-432h-70v312z" />
    <glyph glyph-name="uni2198" unicode="&#x2198;" horiz-adv-x="726" 
d="M199 0v70h313l-464 464l50 50l465 -464v312h69v-432h-433z" />
    <glyph glyph-name="uni2199" unicode="&#x2199;" horiz-adv-x="726" 
d="M163 120l465 464l50 -50l-464 -464h313v-70h-433v432h69v-312z" />
    <glyph glyph-name="uni21B0" unicode="&#x21b0;" horiz-adv-x="846" 
d="M763 -209h-71v423h-514l219 -220l-48 -50l-306 306l306 306l48 -50l-219 -220h585v-495z" />
    <glyph glyph-name="uni21B1" unicode="&#x21b1;" horiz-adv-x="846" 
d="M83 -209v495h585l-220 220l49 50l306 -306l-306 -306l-49 50l220 220h-514v-423h-71z" />
    <glyph glyph-name="uni21B2" unicode="&#x21b2;" horiz-adv-x="858" 
d="M351 -58l-306 306l306 306l48 -50l-219 -220h513v426h72v-498h-585l219 -220z" />
    <glyph glyph-name="uni21B3" unicode="&#x21b3;" horiz-adv-x="858" 
d="M814 248l-306 -306l-49 50l220 220h-585v498h71v-426h514l-220 220l49 50z" />
    <glyph glyph-name="minus" unicode="&#x2212;" horiz-adv-x="558" 
d="M68 251v77h423v-77h-423z" />
    <glyph glyph-name="uniF6D1" unicode="&#xf6d1;" 
d="M0 759q-68 0 -113.5 43.5t-45.5 114.5h66q0 -45 25.5 -72t67.5 -27t67.5 27t25.5 72h66q0 -71 -45.5 -114.5t-113.5 -43.5z" />
    <glyph glyph-name="uniF6D4" unicode="&#xf6d4;" 
d="M0 578q-68 0 -113.5 44t-45.5 115v13h68v-13q0 -48 25.5 -74.5t65.5 -26.5t65.5 26.5t25.5 74.5v13h68v-13q0 -71 -45.5 -115t-113.5 -44z" />
    <glyph glyph-name="f_f" unicode="&#xfb00;" horiz-adv-x="717" 
d="M123 0v421h-106v79h106v103q0 75 42 114t111 39q41 0 78 -13v-76q-21 10 -62 10q-43 0 -63 -19t-20 -66v-92h123v-79h-123v-421h-86zM473 0v421h-86v79h86v103q0 75 42 114t111 39q41 0 78 -13v-76q-23 10 -63 10q-43 0 -62.5 -19t-19.5 -66v-92h145v-79h-145v-421h-86z
" />
    <glyph glyph-name="fi" unicode="&#xfb01;" horiz-adv-x="615" 
d="M123 0v421h-106v79h106v101q0 75 42 115t111 40q41 0 78 -13v-76q-23 10 -62 10q-43 0 -63 -19t-20 -66v-92h145v-79h-145v-421h-86zM492 634q-26 0 -44 17.5t-18 43.5q0 25 18 43t44 18t43 -18t17 -43q0 -26 -17 -43.5t-43 -17.5zM448 0v500h86v-500h-86z" />
    <glyph glyph-name="fl" unicode="&#xfb02;" horiz-adv-x="615" 
d="M123 0v421h-106v79h106v101q0 75 42 115t111 40q41 0 78 -13v-76q-23 10 -62 10q-43 0 -63 -19t-20 -66v-92h145v-79h-145v-421h-86zM448 0v750h86v-750h-86z" />
    <glyph glyph-name="f_f_i" unicode="&#xfb03;" horiz-adv-x="966" 
d="M842 634q-26 0 -44 17.5t-18 43.5q0 25 18 43t44 18t43 -18t17 -43q0 -26 -17 -43.5t-43 -17.5zM798 0v500h86v-500h-86zM123 0v421h-106v79h106v103q0 75 42 114t111 39q41 0 78 -13v-76q-21 10 -62 10q-43 0 -63 -19t-20 -66v-92h123v-79h-123v-421h-86zM473 0v421h-86
v79h86v103q0 75 42 114t111 39q41 0 78 -13v-76q-23 10 -63 10q-43 0 -62.5 -19t-19.5 -66v-92h145v-79h-145v-421h-86z" />
    <glyph glyph-name="f_f_l" unicode="&#xfb04;" horiz-adv-x="966" 
d="M798 0v750h86v-750h-86zM123 0v421h-106v79h106v103q0 75 42 114t111 39q41 0 78 -13v-76q-21 10 -62 10q-43 0 -63 -19t-20 -66v-92h123v-79h-123v-421h-86zM473 0v421h-86v79h86v103q0 75 42 114t111 39q41 0 78 -13v-76q-23 10 -63 10q-43 0 -62.5 -19t-19.5 -66v-92
h145v-79h-145v-421h-86z" />
    <glyph glyph-name="uniFEFF" unicode="&#xfeff;" 
 />
    <glyph glyph-name="NULL" 
 />
    <glyph glyph-name="CR" horiz-adv-x="241" 
 />
    <glyph glyph-name="L_periodcentered" horiz-adv-x="553" 
d="M94 0v710h93v-622h343v-88h-436zM417 341q-25 0 -42 17t-17 41t17 41.5t42 17.5q24 0 41 -17.5t17 -41.5t-17 -41t-41 -17z" />
    <glyph glyph-name="l_periodcentered" horiz-adv-x="383" 
d="M81 0v750h86v-750h-86zM317 317q-25 0 -42 17t-17 41t17 41.5t42 17.5q24 0 41 -17.5t17 -41.5t-17 -41t-41 -17z" />
    <glyph glyph-name="_470" 
d="M41 500h-81v126h81v-126z" />
    <glyph glyph-name="_471" 
d="M148 226h-296v70h296v-70z" />
    <glyph glyph-name="_472" 
d="M-201 218v68h402v-68h-402z" />
    <glyph glyph-name="_473" 
d="M-179 -70v70h359v-70h-359z" />
    <glyph glyph-name="_474" 
d="M-7 -126v126h-28v79h109v-205h-81z" />
    <glyph glyph-name="_476" 
d="M45 710h-88v148h88v-148z" />
    <glyph glyph-name="_477" 
d="M126 370q89 0 154 47v-84q-65 -47 -154 -47q-47 0 -128.5 23.5t-122.5 23.5q-89 0 -154 -47v84q65 47 154 47q53 0 130 -23.5t121 -23.5z" />
    <glyph glyph-name="_478" 
d="M-181 316v85h363v-85h-363z" />
    <glyph glyph-name="_479" 
d="M-320 302v85h640v-85h-640z" />
    <glyph glyph-name="_480" 
d="M202 301v-85h-404v85h404z" />
    <glyph glyph-name="_481" 
d="M-27 -148v148h-27v88h115v-236h-88z" />
    <glyph glyph-name="_505" horiz-adv-x="535" 
d="M234 675l129 48l-131 -252l233 10l-415 -492l242 402l-205 -12zM455 465q5 0 5 -5q0 4 4 5q-4 0 -4 5t5 5t5 -5t-4 -5q3 -1 4 -4q0 4 5 4t5 -5t-4 -5q4 -1 4 -5q0 -5 -4 -5q3 -1 4 -4q0 4 5 4t5 -5t-4 -5q4 -1 4 -5q0 -5 -5 -5t-5 4q-1 -4 -4 -4q4 -1 4 -5q0 -5 -5 -5
t-5 4q-1 -4 -4 -4q4 -1 4 -5q0 -5 -5 -5t-5 4q-1 -4 -4 -4q4 -1 4 -5q0 -5 -5 -5t-5 4q-1 -4 -4 -4q4 -1 4 -5q0 -5 -5 -5t-5 4q-1 -4 -4 -4q4 -1 4 -5q0 -5 -5 -5t-5 4q-1 -4 -4 -4q4 -1 4 -5q0 -5 -5 -5t-5 4q-1 -4 -4 -4q4 -1 4 -5q0 -5 -4 -5q4 -1 4 -5q0 -5 -5 -5t-5 4
q-1 -4 -4 -4q4 -1 4 -5q0 -5 -5 -5t-5 4q-1 -4 -4 -4q4 -1 4 -5q0 -5 -5 -5t-5 4q-1 -4 -4 -4q4 -1 4 -5q0 -5 -5 -5t-5 4q-1 -4 -4 -4q4 -1 4 -5q0 -5 -5 -5t-5 4q-1 -4 -4 -4q4 -1 4 -5q0 -5 -5 -5t-5 4q-1 -4 -4 -4q4 -1 4 -5q0 -5 -5 -5t-5 4q-1 -4 -4 -4q4 -1 4 -5
q0 -5 -5 -5t-5 4q-1 -4 -4 -4q4 -1 4 -5q0 -5 -5 -5t-5 4q-1 -4 -4 -4q4 -1 4 -5q0 -5 -5 -5t-5 4q-1 -4 -4 -4q4 -1 4 -5q0 -5 -5 -5t-5 4q-1 -4 -4 -4q4 -1 4 -5q0 -5 -5 -5t-5 4q-1 -4 -4 -4q4 -1 4 -5q0 -5 -5 -5t-5 4q-1 -4 -4 -4q4 -1 4 -5q0 -5 -4 -5q4 -1 4 -5
q0 -5 -5 -5t-5 4q-1 -4 -4 -4q4 -1 4 -5q0 -5 -5 -5t-5 4q-1 -4 -4 -4q4 -1 4 -5q0 -5 -5 -5t-5 4q-1 -4 -4 -4q4 -1 4 -5q0 -5 -5 -5t-5 4q-1 -4 -4 -4q4 -1 4 -5q0 -5 -5 -5t-5 4q-1 -4 -4 -4q4 -1 4 -5q0 -5 -5 -5t-5 4q-1 -4 -4 -4q4 -1 4 -5q0 -5 -5 -5t-5 4
q-1 -4 -4 -4q4 -1 4 -5q0 -5 -5 -5t-5 4q-1 -4 -4 -4q4 -1 4 -5q0 -5 -5 -5t-5 4q-1 -4 -4 -4q4 -1 4 -5q0 -5 -5 -5t-5 4q-1 -4 -4 -4q4 -1 4 -5q0 -5 -5 -5t-5 4q-1 -4 -4 -4q4 -1 4 -5q0 -5 -4 -5q4 -1 4 -5q0 -5 -5 -5t-5 4q-1 -4 -4 -4q4 -1 4 -5q0 -5 -5 -5t-5 4
q-1 -4 -4 -4q4 -1 4 -5q0 -5 -5 -5t-5 4q-1 -4 -4 -4q4 -1 4 -5q0 -5 -5 -5t-5 4q-1 -4 -4 -4q4 -1 4 -5q0 -5 -5 -5t-5 4q-1 -4 -4 -4q4 -1 4 -5q0 -5 -5 -5t-5 4q-1 -4 -4 -4q4 -1 4 -5q0 -5 -5 -5t-5 4q-1 -4 -4 -4q4 -1 4 -5q0 -5 -5 -5t-5 4q-1 -4 -4 -4q4 -1 4 -5
q0 -5 -5 -5t-5 4q-1 -4 -4 -4q4 -1 4 -5q0 -5 -5 -5t-5 4q-1 -3 -4 -4q4 0 4 -5t-5 -5t-5 4q-1 -3 -4 -4q4 0 4 -5t-5 -5t-5 5t4 5q-4 1 -4 5q0 5 5 5t5 -5q0 5 4 5q-4 1 -4 5t4 5q-4 0 -4 5t5 5t5 -5q0 4 4 5q-4 0 -4 5t5 5q4 0 5 -4q0 3 4 4q-4 0 -4 5t5 5q4 0 5 -4
q0 3 4 4q-4 0 -4 5t5 5q4 0 5 -4q0 3 4 4q-4 0 -4 5t5 5t5 -5q0 4 4 5q-4 0 -4 5t5 5t5 -5q0 4 4 5q-4 0 -4 5q0 4 4 5q-4 0 -4 5t5 5t5 -5q0 4 4 5q-4 0 -4 5t5 5q4 0 5 -4q0 3 4 4q-4 0 -4 5t5 5q4 0 5 -4q0 3 4 4q-4 0 -4 5t5 5t5 -5q0 4 4 5q-4 0 -4 5t5 5t5 -5q0 4 4 5
q-4 0 -4 5q0 4 4 5q-4 0 -4 5t5 5q4 0 5 -4q0 3 4 4q-4 0 -4 5t5 5t5 -5q0 4 4 5q-4 0 -4 5t5 5t5 -5q0 4 4 5q-4 0 -4 5t5 5t5 -5q0 4 4 5q-4 0 -4 5t5 5t5 -5q0 4 4 5q-4 0 -4 5q0 4 4 5q-4 0 -4 5t5 5t5 -5q0 4 4 5q-4 0 -4 5t5 5q4 0 5 -4q0 3 4 4q-4 0 -4 5t5 5t5 -5
q0 4 4 5q-4 0 -4 5t5 5t5 -5q0 4 4 5q-4 0 -4 5t5 5t5 -5q0 4 4 5q-4 0 -4 5t5 5t5 -5q0 4 4 5q-4 0 -4 5q0 4 4 5q-4 0 -4 5t5 5t5 -5q0 4 4 5q-4 0 -4 5t5 5q4 0 5 -4q0 3 4 4q-4 0 -4 5t5 5t5 -5q0 4 4 5q-4 0 -4 5t5 5q4 0 5 -4q0 3 4 4q-4 0 -4 5t5 5q4 0 5 -4q0 3 4 4
q-4 0 -4 5q0 4 4 5q-4 0 -4 5t5 5t5 -5q0 4 4 5q-4 0 -4 5t5 5t5 -5q0 4 4 5q-4 0 -4 5t5 5t5 -5q0 4 4 5q-4 0 -4 5t5 5t5 -5q0 4 4 5q-4 0 -4 5t5 5t5 -5q0 4 4 5q-4 0 -4 5q0 4 4 5q-4 0 -4 5t5 5t5 -5q0 4 4 5q-4 0 -4 5t5 5q4 0 5 -4q0 3 4 4q-4 0 -4 5t5 5q4 0 5 -4
q0 3 4 4q-4 0 -4 5t5 5q4 0 5 -4q0 3 4 4q-4 0 -4 5t5 5t5 -5q0 4 4 5q-4 0 -4 5t5 5q4 0 5 -4q0 3 4 4q-4 0 -4 5q0 4 4 5q-4 0 -4 5t5 5zM355 695q4 0 5 -4q0 3 4 4q-4 0 -4 5q0 4 4 5q-4 0 -4 5t5 5t5 -5t-4 -5q3 -1 4 -4q0 4 5 4t5 -5t-4 -5q3 -1 4 -4q0 4 5 4t5 -5
t-4 -5q4 -1 4 -5q0 -5 -5 -5t-5 4q-1 -4 -4 -4q4 -1 4 -5q0 -5 -4 -5q4 -1 4 -5q0 -5 -5 -5t-5 4q-1 -4 -4 -4q4 -1 4 -5q0 -5 -5 -5t-5 4q-1 -4 -4 -4q4 -1 4 -5q0 -5 -4 -5q4 -1 4 -5q0 -5 -5 -5t-5 4q-1 -4 -4 -4q4 -1 4 -5q0 -5 -4 -5q4 -1 4 -5q0 -5 -5 -5t-5 4
q-1 -4 -4 -4q4 -1 4 -5q0 -5 -4 -5q4 -1 4 -5q0 -5 -5 -5t-5 4q-1 -4 -4 -4q4 -1 4 -5q0 -5 -5 -5t-5 4q-1 -4 -4 -4q4 -1 4 -5q0 -5 -4 -5q4 -1 4 -5q0 -5 -5 -5t-5 4q-1 -4 -4 -4q4 -1 4 -5q0 -5 -4 -5q4 -1 4 -5q0 -5 -5 -5t-5 4q-1 -4 -4 -4q4 -1 4 -5q0 -5 -4 -5
q4 -1 4 -5q0 -5 -5 -5t-5 4q-1 -4 -4 -4q4 -1 4 -5q0 -5 -4 -5q4 -1 4 -5q0 -5 -5 -5t-5 4q-1 -4 -4 -4q4 -1 4 -5q0 -5 -4 -5q4 -1 4 -5q0 -5 -5 -5t-5 4q-1 -4 -5 -4q-5 0 -5 4q-1 -4 -5 -4q-5 0 -5 4q-1 -4 -5 -4q-5 0 -5 5t5 5q4 0 5 -4q0 3 4 4q-4 0 -4 5q0 4 4 5
q-4 0 -4 5t5 5q4 0 5 -4q0 3 4 4q-4 0 -4 5q0 4 4 5q-4 0 -4 5t5 5t5 -5q0 4 4 5q-4 0 -4 5q0 4 4 5q-4 0 -4 5t5 5q4 0 5 -4q0 3 4 4q-4 0 -4 5q0 4 4 5q-4 0 -4 5t5 5t5 -5q0 4 4 5q-4 0 -4 5q0 4 4 5q-4 0 -4 5t5 5q4 0 5 -4q0 3 4 4q-4 0 -4 5q0 4 4 5q-4 0 -4 5t5 5
t5 -5q0 4 4 5q-4 0 -4 5t5 5q4 0 5 -4q0 3 4 4q-4 0 -4 5q0 4 4 5q-4 0 -4 5t5 5q4 0 5 -4q0 3 4 4q-4 0 -4 5q0 4 4 5q-4 0 -4 5t5 5q4 0 5 -4q0 3 4 4q-4 0 -4 5q0 4 4 5q-4 0 -4 5t5 5t5 -5q0 4 4 5q-4 0 -4 5q0 4 4 5q-4 0 -4 5t5 5zM275 385q5 0 5 -5t-5 -5t-5 4
q-1 -4 -4 -4q4 -1 4 -5q0 -5 -4 -5q4 -1 4 -5q0 -5 -5 -5t-5 4q-1 -4 -5 -4q-5 0 -5 4q-1 -4 -5 -4q-5 0 -5 4q-1 -4 -5 -4q-5 0 -5 4q-1 -4 -5 -4q-5 0 -5 4q-1 -4 -5 -4q-5 0 -5 4q-1 -4 -5 -4q-5 0 -5 4q-1 -4 -5 -4q-5 0 -5 4q-1 -4 -4 -4q4 -1 4 -5q0 -5 -5 -5t-5 4
q-1 -4 -5 -4q-5 0 -5 4q-1 -4 -5 -4q-5 0 -5 4q-1 -4 -5 -4q-5 0 -5 4q-1 -4 -5 -4q-5 0 -5 4q-1 -4 -5 -4q-5 0 -5 4q-1 -4 -5 -4q-5 0 -5 4q-1 -4 -5 -4q-5 0 -5 4q-1 -4 -5 -4q-5 0 -5 5q0 4 4 5q-4 0 -4 4q-1 -4 -5 -4q-5 0 -5 5q0 4 4 5q-4 0 -4 5t5 5t5 -5q0 5 5 5
t5 -5q0 5 5 5q4 0 5 -4q0 4 5 4t5 -5q0 5 5 5q4 0 5 -4q0 4 5 4t5 -5q0 5 5 5t5 -5q0 5 5 5t5 -5q0 5 5 5t5 -5q0 5 5 5t5 -5q0 4 4 5q-4 0 -4 5t5 5q4 0 5 -4q0 4 5 4t5 -5q0 5 5 5q4 0 5 -4q0 4 5 4t5 -5q0 5 5 5t5 -5q0 5 5 5q4 0 5 -4q0 4 5 4q4 0 5 -4q0 4 5 4
q4 0 5 -4q0 4 5 4zM110 39q-1 -4 -4 -4q4 -1 4 -5q0 4 4 5q-4 0 -4 4zM120 49q-1 -4 -4 -4q4 -1 4 -5q0 4 4 5q-4 0 -4 4zM130 59q-1 -4 -4 -4q4 -1 4 -5q0 4 4 5q-4 0 -4 4zM140 69q-1 -4 -4 -4q3 -1 4 -4q0 3 4 4q-4 0 -4 4zM140 79q-1 -4 -4 -4q3 -1 4 -4q0 3 4 4
q-4 0 -4 4zM154 75q-4 0 -4 4q-1 -4 -4 -4q3 -1 4 -4q0 3 4 4zM160 89q-1 -4 -4 -4q3 -1 4 -4q0 3 4 4q-4 0 -4 4zM154 85q-4 0 -4 4q-1 -4 -4 -4q3 -1 4 -4q0 3 4 4zM170 99q-1 -4 -4 -4q4 -1 4 -5q0 4 4 5q-4 0 -4 4zM160 99q-1 -4 -4 -4q3 -1 4 -4q0 3 4 4q-4 0 -4 4z
M170 109q-1 -4 -4 -4q4 -1 4 -5q0 4 4 5q-4 0 -4 4zM180 119q-1 -4 -4 -4q4 -1 4 -5q0 4 4 5q-4 0 -4 4zM190 129q-1 -4 -4 -4q3 -1 4 -4q0 3 4 4q-4 0 -4 4zM260 369q-1 -4 -4 -4q3 -1 4 -4q0 3 4 4q-4 0 -4 4zM250 369q-1 -4 -4 -4q4 -1 4 -5q0 4 4 5q-4 0 -4 4zM240 369
q-1 -4 -4 -4q4 -1 4 -5q0 4 4 5q-4 0 -4 4zM230 369q-1 -4 -4 -4q4 -1 4 -5q0 4 4 5q-4 0 -4 4zM220 369q-1 -4 -4 -4q4 -1 4 -5q0 4 4 5q-4 0 -4 4zM260 379q-1 -4 -4 -4q3 -1 4 -4q0 3 4 4q-4 0 -4 4zM250 379q-1 -4 -4 -4q3 -1 4 -4q0 3 4 4q-4 0 -4 4zM240 379
q-1 -4 -4 -4q4 -1 4 -5q0 4 4 5q-4 0 -4 4zM230 379q-1 -4 -4 -4q3 -1 4 -4q0 3 4 4q-4 0 -4 4zM220 379q-1 -4 -4 -4q3 -1 4 -4q0 3 4 4q-4 0 -4 4zM180 359q-1 -4 -4 -4q3 -1 4 -4q0 3 4 4q-4 0 -4 4zM170 359q-1 -4 -4 -4q4 -1 4 -5q0 4 4 5q-4 0 -4 4zM160 359
q-1 -4 -4 -4q4 -1 4 -5q0 4 4 5q-4 0 -4 4zM210 369q-1 -4 -4 -4q4 -1 4 -5q0 4 4 5q-4 0 -4 4zM200 369q-1 -4 -4 -4q3 -1 4 -4q0 3 4 4q-4 0 -4 4zM190 369q-1 -4 -4 -4q4 -1 4 -5q0 4 4 5q-4 0 -4 4zM180 369q-1 -4 -4 -4q4 -1 4 -5q0 4 4 5q-4 0 -4 4zM170 369
q-1 -4 -4 -4q4 -1 4 -5q0 4 4 5q-4 0 -4 4zM160 369q-1 -4 -4 -4q4 -1 4 -5q0 4 4 5q-4 0 -4 4zM210 379q-1 -4 -4 -4q4 -1 4 -5q0 4 4 5q-4 0 -4 4zM200 379q-1 -4 -4 -4q3 -1 4 -4q0 3 4 4q-4 0 -4 4zM150 359q-1 -4 -4 -4q4 -1 4 -5q0 4 4 5q-4 0 -4 4zM140 359
q-1 -4 -4 -4q4 -1 4 -5q0 4 4 5q-4 0 -4 4zM130 359q-1 -4 -4 -4q4 -1 4 -5q0 4 4 5q-4 0 -4 4zM120 359q-1 -4 -4 -4q4 -1 4 -5q0 4 4 5q-4 0 -4 4zM110 359q-1 -4 -4 -4q4 -1 4 -5q0 4 4 5q-4 0 -4 4zM150 369q-1 -4 -4 -4q4 -1 4 -5q0 4 4 5q-4 0 -4 4zM140 369
q-1 -4 -4 -4q4 -1 4 -5q0 4 4 5q-4 0 -4 4zM130 369q-1 -4 -4 -4q4 -1 4 -5q0 4 4 5q-4 0 -4 4zM120 369q-1 -4 -4 -4q4 -1 4 -5q0 4 4 5q-4 0 -4 4zM110 369q-1 -4 -4 -4q4 -1 4 -5q0 4 4 5q-4 0 -4 4zM100 369q-1 -4 -4 -4q4 -1 4 -5q0 4 4 5q-4 0 -4 4zM410 369
q-1 -4 -4 -4q4 -1 4 -5q0 4 4 5q-4 0 -4 4zM200 139q-1 -4 -4 -4q4 -1 4 -5q0 4 4 5q-4 0 -4 4zM194 135q-4 0 -4 4q-1 -4 -4 -4q4 -1 4 -5q0 4 4 5zM210 149q-1 -4 -4 -4q4 -1 4 -5q0 4 4 5q-4 0 -4 4zM200 149q-1 -4 -4 -4q3 -1 4 -4q0 3 4 4q-4 0 -4 4zM220 159
q-1 -4 -4 -4q4 -1 4 -5q0 4 4 5q-4 0 -4 4zM210 159q-1 -4 -4 -4q4 -1 4 -5q0 4 4 5q-4 0 -4 4zM230 169q-1 -4 -4 -4q4 -1 4 -5q0 4 4 5q-4 0 -4 4zM220 169q-1 -4 -4 -4q4 -1 4 -5q0 4 4 5q-4 0 -4 4zM240 179q-1 -4 -4 -4q4 -1 4 -5q0 4 4 5q-4 0 -4 4zM230 179
q-1 -4 -4 -4q4 -1 4 -5q0 4 4 5q-4 0 -4 4zM240 189q-1 -4 -4 -4q4 -1 4 -5q0 4 4 5q-4 0 -4 4zM240 199q-1 -4 -4 -4q4 -1 4 -5q0 4 4 5q-4 0 -4 4zM254 185q-4 0 -4 4q-1 -4 -4 -4q3 -1 4 -4q0 3 4 4zM260 199q-1 -4 -4 -4q4 -1 4 -5q0 4 4 5q-4 0 -4 4zM254 195
q-4 0 -4 4q-1 -4 -4 -4q4 -1 4 -5q0 4 4 5zM270 209q-1 -4 -4 -4q4 -1 4 -5q0 4 4 5q-4 0 -4 4zM260 209q-1 -4 -4 -4q4 -1 4 -5q0 4 4 5q-4 0 -4 4zM254 205q-4 0 -4 4q-1 -4 -4 -4q4 -1 4 -5q0 4 4 5zM280 219q-1 -4 -4 -4q3 -1 4 -4q0 3 4 4q-4 0 -4 4zM270 219
q-1 -4 -4 -4q4 -1 4 -5q0 4 4 5q-4 0 -4 4zM260 219q-1 -4 -4 -4q3 -1 4 -4q0 3 4 4q-4 0 -4 4zM280 229q-1 -4 -4 -4q4 -1 4 -5q0 4 4 5q-4 0 -4 4zM270 229q-1 -4 -4 -4q3 -1 4 -4q0 3 4 4q-4 0 -4 4zM290 239q-1 -4 -4 -4q3 -1 4 -4q0 3 4 4q-4 0 -4 4zM280 239
q-1 -4 -4 -4q4 -1 4 -5q0 4 4 5q-4 0 -4 4zM300 249q-1 -4 -4 -4q4 -1 4 -5q0 4 4 5q-4 0 -4 4zM290 249q-1 -4 -4 -4q4 -1 4 -5q0 4 4 5q-4 0 -4 4zM300 259q-1 -4 -4 -4q4 -1 4 -5q0 4 4 5q-4 0 -4 4zM300 269q-1 -4 -4 -4q3 -1 4 -4q0 3 4 4q-4 0 -4 4zM314 255
q-4 0 -4 4q-1 -4 -4 -4q4 -1 4 -5q0 4 4 5zM320 269q-1 -4 -4 -4q4 -1 4 -5q0 4 4 5q-4 0 -4 4zM314 265q-4 0 -4 4q-1 -4 -4 -4q4 -1 4 -5q0 4 4 5zM330 279q-1 -4 -4 -4q3 -1 4 -4q0 3 4 4q-4 0 -4 4zM320 279q-1 -4 -4 -4q3 -1 4 -4q0 3 4 4q-4 0 -4 4zM314 275
q-4 0 -4 4q-1 -4 -4 -4q3 -1 4 -4q0 3 4 4zM340 289q-1 -4 -4 -4q4 -1 4 -5q0 4 4 5q-4 0 -4 4zM330 289q-1 -4 -4 -4q4 -1 4 -5q0 4 4 5q-4 0 -4 4zM320 289q-1 -4 -4 -4q4 -1 4 -5q0 4 4 5q-4 0 -4 4zM350 299q-1 -4 -4 -4q4 -1 4 -5q0 4 4 5q-4 0 -4 4zM340 299
q-1 -4 -4 -4q3 -1 4 -4q0 3 4 4q-4 0 -4 4zM330 299q-1 -4 -4 -4q4 -1 4 -5q0 4 4 5q-4 0 -4 4zM360 309q-1 -4 -4 -4q4 -1 4 -5q0 4 4 5q-4 0 -4 4zM350 309q-1 -4 -4 -4q3 -1 4 -4q0 3 4 4q-4 0 -4 4zM340 309q-1 -4 -4 -4q4 -1 4 -5q0 4 4 5q-4 0 -4 4zM270 489
q-1 -4 -4 -4q3 -1 4 -4q0 3 4 4q-4 0 -4 4zM260 489q-1 -4 -4 -4q3 -1 4 -4q0 3 4 4q-4 0 -4 4zM270 499q-1 -4 -4 -4q4 -1 4 -5q0 4 4 5q-4 0 -4 4zM260 499q-1 -4 -4 -4q3 -1 4 -4q0 3 4 4q-4 0 -4 4zM280 509q-1 -4 -4 -4q3 -1 4 -4q0 3 4 4q-4 0 -4 4zM270 509
q-1 -4 -4 -4q4 -1 4 -5q0 4 4 5q-4 0 -4 4zM280 519q-1 -4 -4 -4q4 -1 4 -5q0 4 4 5q-4 0 -4 4zM270 519q-1 -4 -4 -4q4 -1 4 -5q0 4 4 5q-4 0 -4 4zM280 529q-1 -4 -4 -4q4 -1 4 -5q0 4 4 5q-4 0 -4 4zM280 539q-1 -4 -4 -4q4 -1 4 -5q0 4 4 5q-4 0 -4 4zM360 319
q-1 -4 -4 -4q4 -1 4 -5q0 4 4 5q-4 0 -4 4zM350 319q-1 -4 -4 -4q3 -1 4 -4q0 3 4 4q-4 0 -4 4zM360 329q-1 -4 -4 -4q4 -1 4 -5q0 4 4 5q-4 0 -4 4zM350 329q-1 -4 -4 -4q4 -1 4 -5q0 4 4 5q-4 0 -4 4zM360 339q-1 -4 -4 -4q3 -1 4 -4q0 3 4 4q-4 0 -4 4zM374 315
q-4 0 -4 4q-1 -4 -4 -4q3 -1 4 -4q0 3 4 4zM380 329q-1 -4 -4 -4q3 -1 4 -4q0 3 4 4q-4 0 -4 4zM374 325q-4 0 -4 4q-1 -4 -4 -4q4 -1 4 -5q0 4 4 5zM390 339q-1 -4 -4 -4q4 -1 4 -5q0 4 4 5q-4 0 -4 4zM380 339q-1 -4 -4 -4q4 -1 4 -5q0 4 4 5q-4 0 -4 4zM374 335
q-4 0 -4 4q-1 -4 -4 -4q3 -1 4 -4q0 3 4 4zM400 349q-1 -4 -4 -4q4 -1 4 -5q0 4 4 5q-4 0 -4 4zM390 349q-1 -4 -4 -4q3 -1 4 -4q0 3 4 4q-4 0 -4 4zM380 349q-1 -4 -4 -4q4 -1 4 -5q0 4 4 5q-4 0 -4 4zM374 345q-4 0 -4 4q-1 -4 -4 -4q4 -1 4 -5q0 4 4 5zM410 359
q-1 -4 -4 -4q4 -1 4 -5q0 4 4 5q-4 0 -4 4zM400 359q-1 -4 -4 -4q3 -1 4 -4q0 3 4 4q-4 0 -4 4zM390 359q-1 -4 -4 -4q3 -1 4 -4q0 3 4 4q-4 0 -4 4zM380 359q-1 -4 -4 -4q3 -1 4 -4q0 3 4 4q-4 0 -4 4zM300 549q-1 -4 -4 -4q3 -1 4 -4q0 3 4 4q-4 0 -4 4zM400 369
q-1 -4 -4 -4q4 -1 4 -5q0 4 4 5q-4 0 -4 4zM390 369q-1 -4 -4 -4q3 -1 4 -4q0 3 4 4q-4 0 -4 4zM420 379q-1 -4 -4 -4q3 -1 4 -4q0 3 4 4q-4 0 -4 4zM410 379q-1 -4 -4 -4q3 -1 4 -4q0 3 4 4q-4 0 -4 4zM400 379q-1 -4 -4 -4q4 -1 4 -5q0 4 4 5q-4 0 -4 4zM420 389
q-1 -4 -4 -4q4 -1 4 -5q0 4 4 5q-4 0 -4 4zM410 389q-1 -4 -4 -4q4 -1 4 -5q0 4 4 5q-4 0 -4 4zM400 389q-1 -4 -4 -4q3 -1 4 -4q0 3 4 4q-4 0 -4 4zM420 399q-1 -4 -4 -4q4 -1 4 -5q0 4 4 5q-4 0 -4 4zM410 399q-1 -4 -4 -4q4 -1 4 -5q0 4 4 5q-4 0 -4 4zM420 409
q-1 -4 -4 -4q4 -1 4 -5q0 4 4 5q-4 0 -4 4zM434 385q-4 0 -4 4q-1 -4 -4 -4q4 -1 4 -5q0 4 4 5zM440 399q-1 -4 -4 -4q4 -1 4 -5q0 4 4 5q-4 0 -4 4zM434 395q-4 0 -4 4q-1 -4 -4 -4q3 -1 4 -4q0 3 4 4zM450 409q-1 -4 -4 -4q4 -1 4 -5q0 4 4 5q-4 0 -4 4zM440 409
q-1 -4 -4 -4q3 -1 4 -4q0 3 4 4q-4 0 -4 4zM434 405q-4 0 -4 4q-1 -4 -4 -4q4 -1 4 -5q0 4 4 5zM460 419q-1 -4 -4 -4q4 -1 4 -5q0 4 4 5q-4 0 -4 4zM450 419q-1 -4 -4 -4q3 -1 4 -4q0 3 4 4q-4 0 -4 4zM440 419q-1 -4 -4 -4q4 -1 4 -5q0 4 4 5q-4 0 -4 4zM434 415
q-4 0 -4 4q-1 -4 -4 -4q3 -1 4 -4q0 3 4 4zM470 429q-1 -4 -4 -4q3 -1 4 -4q0 3 4 4q-4 0 -4 4zM460 429q-1 -4 -4 -4q4 -1 4 -5q0 4 4 5q-4 0 -4 4zM450 429q-1 -4 -4 -4q3 -1 4 -4q0 3 4 4q-4 0 -4 4zM440 429q-1 -4 -4 -4q3 -1 4 -4q0 3 4 4q-4 0 -4 4zM480 439
q-1 -4 -4 -4q3 -1 4 -4q0 3 4 4q-4 0 -4 4zM470 439q-1 -4 -4 -4q3 -1 4 -4q0 3 4 4q-4 0 -4 4zM460 439q-1 -4 -4 -4q4 -1 4 -5q0 4 4 5q-4 0 -4 4zM450 439q-1 -4 -4 -4q3 -1 4 -4q0 3 4 4q-4 0 -4 4zM470 449q-1 -4 -4 -4q3 -1 4 -4q0 3 4 4q-4 0 -4 4zM460 449
q-1 -4 -4 -4q3 -1 4 -4q0 3 4 4q-4 0 -4 4zM470 459q-1 -4 -4 -4q4 -1 4 -5q0 4 4 5q-4 0 -4 4zM460 459q-1 -4 -4 -4q4 -1 4 -5q0 4 4 5q-4 0 -4 4zM340 629q-1 -4 -4 -4q3 -1 4 -4q0 3 4 4q-4 0 -4 4zM294 525q-4 0 -4 4q-1 -4 -4 -4q4 -1 4 -5q0 4 4 5zM294 535
q-4 0 -4 4q-1 -4 -4 -4q4 -1 4 -5q0 4 4 5zM330 629q-1 -4 -4 -4q3 -1 4 -4q0 3 4 4q-4 0 -4 4zM294 545q-4 0 -4 4q-1 -4 -4 -4q4 -1 4 -5q0 4 4 5zM300 559q-1 -4 -4 -4q3 -1 4 -4q0 3 4 4q-4 0 -4 4zM294 555q-4 0 -4 4q-1 -4 -4 -4q4 -1 4 -5q0 4 4 5zM310 569
q-1 -4 -4 -4q4 -1 4 -5q0 4 4 5q-4 0 -4 4zM300 569q-1 -4 -4 -4q4 -1 4 -5q0 4 4 5q-4 0 -4 4zM310 579q-1 -4 -4 -4q4 -1 4 -5q0 4 4 5q-4 0 -4 4zM300 579q-1 -4 -4 -4q3 -1 4 -4q0 3 4 4q-4 0 -4 4zM320 589q-1 -4 -4 -4q4 -1 4 -5q0 4 4 5q-4 0 -4 4zM310 589
q-1 -4 -4 -4q4 -1 4 -5q0 4 4 5q-4 0 -4 4zM330 599q-1 -4 -4 -4q3 -1 4 -4q0 3 4 4q-4 0 -4 4zM320 599q-1 -4 -4 -4q4 -1 4 -5q0 4 4 5q-4 0 -4 4zM310 599q-1 -4 -4 -4q4 -1 4 -5q0 4 4 5q-4 0 -4 4zM330 609q-1 -4 -4 -4q3 -1 4 -4q0 3 4 4q-4 0 -4 4zM320 609
q-1 -4 -4 -4q4 -1 4 -5q0 4 4 5q-4 0 -4 4zM340 619q-1 -4 -4 -4q4 -1 4 -5q0 4 4 5q-4 0 -4 4zM330 619q-1 -4 -4 -4q4 -1 4 -5q0 4 4 5q-4 0 -4 4zM354 665q-4 0 -4 4q-1 -4 -4 -4q4 -1 4 -5q0 4 4 5zM360 689q-1 -4 -4 -4q4 -1 4 -5q0 4 4 5q-4 0 -4 4zM340 639
q-1 -4 -4 -4q3 -1 4 -4q0 3 4 4q-4 0 -4 4zM340 649q-1 -4 -4 -4q4 -1 4 -5q0 4 4 5q-4 0 -4 4zM354 635q-4 0 -4 4q-1 -4 -4 -4q3 -1 4 -4q0 3 4 4zM354 645q-4 0 -4 4q-1 -4 -4 -4q4 -1 4 -5q0 4 4 5zM360 659q-1 -4 -4 -4q3 -1 4 -4q0 3 4 4q-4 0 -4 4zM354 655
q-4 0 -4 4q-1 -4 -4 -4q4 -1 4 -5q0 4 4 5zM370 669q-1 -4 -4 -4q3 -1 4 -4q0 3 4 4q-4 0 -4 4zM360 669q-1 -4 -4 -4q4 -1 4 -5q0 4 4 5q-4 0 -4 4zM80 9q-1 -4 -4 -4q4 -1 4 -5q0 4 4 5q-4 0 -4 4zM370 679q-1 -4 -4 -4q4 -1 4 -5q0 4 4 5q-4 0 -4 4zM360 679q-1 -4 -4 -4
q4 -1 4 -5q0 4 4 5q-4 0 -4 4zM380 689q-1 -4 -4 -4q4 -1 4 -5q0 4 4 5q-4 0 -4 4zM370 689q-1 -4 -4 -4q3 -1 4 -4q0 3 4 4q-4 0 -4 4zM94 15q-4 0 -4 4q-1 -4 -4 -4q4 -1 4 -5q0 4 4 5zM370 699q-1 -4 -4 -4q4 -1 4 -5q0 4 4 5q-4 0 -4 4zM100 29q-1 -4 -4 -4q4 -1 4 -5
q0 4 4 5q-4 0 -4 4z" />
    <glyph glyph-name="_526" 
d="M0 634q-26 0 -44 17.5t-18 43.5q0 25 18 43t44 18t43 -18t17 -43q0 -26 -17 -43.5t-43 -17.5z" />
    <glyph glyph-name="_531" 
d="M0 -58q-25 0 -42 17t-17 41t17 41.5t42 17.5q24 0 41 -17.5t17 -41.5t-17 -41t-41 -17z" />
    <glyph glyph-name="_532" 
d="M0 -190q-25 0 -42 17t-17 41t17 41.5t42 17.5q24 0 41 -17.5t17 -41.5t-17 -41t-41 -17z" />
    <glyph glyph-name="_534" 
d="M-62 -269l36 85q-32 19 -32 52q0 24 17 41.5t41 17.5t41 -17.5t17 -41.5q0 -18 -11 -35l-64 -102h-45z" />
    <glyph glyph-name="_538" 
d="M-55 545l24 165h86l-50 -165h-60z" />
    <glyph glyph-name="_539" 
d="M0 596q-24 0 -41 17.5t-17 41.5q0 20 11 34l64 103h45l-36 -85q32 -19 32 -52q0 -24 -17 -41.5t-41 -17.5z" />
    <glyph glyph-name="_540" 
d="M-98 596q-26 0 -43.5 17.5t-17.5 43.5q0 25 17.5 42.5t43.5 17.5q25 0 43 -17.5t18 -42.5q0 -26 -18 -43.5t-43 -17.5zM98 596q-26 0 -43.5 17.5t-17.5 43.5q0 25 17.5 42.5t43.5 17.5q25 0 43 -17.5t18 -42.5q0 -26 -18 -43.5t-43 -17.5z" />
    <glyph glyph-name="_541" 
d="M255 471l-470 -481l-40 40l471 480z" />
    <glyph glyph-name="_542" 
d="M162 577h-323v68h323v-68z" />
    <glyph glyph-name="_543" 
d="M162 577h-323v68h323v-68z" />
    <glyph glyph-name="_544" 
d="M122 411l-244 -157v78l244 156v-77z" />
    <glyph glyph-name="_545" 
d="M-168 266v68h337v-68h-337z" />
    <glyph glyph-name="zero.zero" horiz-adv-x="623" 
d="M311 -10q-111 0 -181 74.5t-70 192.5v198q0 118 70.5 192.5t180.5 74.5t181 -75t71 -192v-198q0 -118 -71 -192.5t-181 -74.5zM311 74q74 0 120 49t46 134v164l-327 -212q13 -65 55.5 -100t105.5 -35zM146 455v-164l326 212q-12 63 -55 99t-106 36q-73 0 -119 -49
t-46 -134z" />
    <glyph glyph-name="one.onum" horiz-adv-x="300" 
d="M130 0v482h-118l67 78h137v-560h-86z" />
    <glyph glyph-name="two.onum" horiz-adv-x="490" 
d="M440 77v-77h-390v30q0 20 3.5 38t11.5 34.5t15.5 29.5t22.5 27.5t24 24t29 23.5t29 20t31.5 20.5t29.5 19.5q53 34 77 63.5t24 73.5q0 39 -27 63.5t-71 24.5q-48 0 -79.5 -27t-32.5 -75h-87q0 80 57 130t142 50q79 0 132 -44t53 -123q0 -62 -31 -106t-102 -90
q-10 -6 -35 -22.5t-37.5 -25.5t-30 -23t-27 -28.5t-13.5 -30.5h282z" />
    <glyph glyph-name="three.onum" horiz-adv-x="517" 
d="M264 -77q-93 0 -157 57t-64 145h85q4 -55 42.5 -89.5t93.5 -34.5q50 0 83 29t33 81q0 55 -34 83t-93 28h-45v73h47q46 0 76.5 27.5t31.5 71.5q0 44 -29.5 71t-74.5 27q-51 0 -85 -31.5t-35 -89.5h-86q0 90 60 144.5t148 54.5q82 0 135.5 -48t53.5 -126q0 -43 -22.5 -79.5
t-56.5 -56.5q45 -19 70.5 -59t25.5 -93q0 -81 -57.5 -133t-145.5 -52z" />
    <glyph glyph-name="four.onum" horiz-adv-x="539" 
d="M336 -68v167h-319v66l329 395h76v-384h83v-77h-83v-167h-86zM126 176h210v254z" />
    <glyph glyph-name="five.onum" horiz-adv-x="487" 
d="M241 -77q-87 0 -147.5 53t-62.5 128h90q9 -46 40 -74.5t80 -28.5q58 0 91 38t33 94t-33 93.5t-86 37.5q-76 0 -113 -65l-79 23l63 338h291v-78h-222l-32 -173q44 31 104 31q86 0 139.5 -59t53.5 -148q0 -94 -56.5 -152t-153.5 -58z" />
    <glyph glyph-name="six.onum" horiz-adv-x="508" 
d="M253 -10q-91 0 -151 60t-60 146q0 47 17.5 83.5t51.5 79.5l215 268h108l-180 -225q5 1 17 1q77 0 135 -60t58 -143q0 -88 -59.5 -149t-151.5 -61zM130 199q0 -56 34.5 -93.5t88.5 -37.5q55 0 89.5 37.5t34.5 93.5q0 55 -34.5 92.5t-89.5 37.5q-54 0 -88.5 -37.5
t-34.5 -92.5z" />
    <glyph glyph-name="seven.onum" horiz-adv-x="450" 
d="M143 -68h-97l284 548h-305v80h407v-69z" />
    <glyph glyph-name="eight.onum" horiz-adv-x="516" 
d="M258 -10q-90 0 -150.5 56t-60.5 142q0 112 96 162q-64 45 -64 125q0 70 51 116t128 46q78 0 128 -45.5t50 -116.5q0 -80 -63 -125q96 -50 96 -162q0 -86 -59.5 -142t-151.5 -56zM258 66q56 0 89.5 35.5t33.5 87.5t-33.5 87t-89.5 35q-55 0 -89.5 -35t-34.5 -87
t34.5 -87.5t89.5 -35.5zM258 381q43 0 69 26.5t26 64.5q0 39 -25.5 65t-69.5 26q-42 0 -68.5 -26t-26.5 -65q0 -37 26.5 -64t68.5 -27z" />
    <glyph glyph-name="nine.onum" horiz-adv-x="505" 
d="M255 569q91 0 151 -60t60 -146q0 -47 -17.5 -83.5t-51.5 -79.5l-215 -268h-108l180 224h-17q-77 0 -135 60t-58 143q0 88 59.5 149t151.5 61zM378 360q0 56 -34.5 93.5t-88.5 37.5q-55 0 -89.5 -37.5t-34.5 -93.5q0 -55 34.5 -92.5t89.5 -37.5q54 0 88.5 37.5t34.5 92.5z
" />
    <glyph glyph-name="zero.onum" horiz-adv-x="544" 
d="M272 -10q-94 0 -153.5 59.5t-59.5 155.5v151q0 94 59.5 154t153.5 60q93 0 153 -60t60 -154v-151q0 -95 -59.5 -155t-153.5 -60zM272 68q57 0 92 36.5t35 100.5v151q0 63 -35 99.5t-92 36.5q-58 0 -92.5 -36.5t-34.5 -99.5v-151q0 -64 34.5 -100.5t92.5 -36.5z" />
    <glyph glyph-name="zero.onum_zero" horiz-adv-x="544" 
d="M272 -10q-94 0 -153.5 59.5t-59.5 155.5v151q0 94 59.5 154t153.5 60q93 0 153 -60t60 -154v-151q0 -95 -59.5 -155t-153.5 -60zM272 68q57 0 92 36.5t35 100.5v115l-249 -160q11 -44 43.5 -68t78.5 -24zM145 356v-116l248 161q-11 44 -43 67.5t-78 23.5
q-58 0 -92.5 -36.5t-34.5 -99.5z" />
    <glyph glyph-name="one.tnum" horiz-adv-x="590" 
d="M83 0v82h177v543h-140l70 85h156v-628h177v-82h-440z" />
    <glyph glyph-name="two.tnum" horiz-adv-x="590" 
d="M525 83v-83h-460v34q0 37 11.5 70.5t25.5 56.5t44 51.5t47 42t57 42t53 37.5q71 52 98.5 87.5t27.5 93.5q0 56 -36 89.5t-94 33.5q-61 0 -104 -37t-43 -103h-88q0 100 66.5 162t167.5 62q94 0 156.5 -54t62.5 -154q0 -76 -37 -129.5t-127 -118.5q-17 -12 -48 -33.5
t-48 -34.5t-37.5 -31.5t-32 -39t-16.5 -44.5h354z" />
    <glyph glyph-name="three.tnum" horiz-adv-x="590" 
d="M302 -10q-106 0 -179.5 64.5t-73.5 161.5h87q4 -63 51 -102.5t115 -39.5q62 0 103 34t41 94q0 64 -41.5 96t-113.5 32h-53v79h57q57 0 93.5 32t37.5 83q0 50 -36.5 82t-91.5 32q-63 0 -106 -37t-43 -103h-88q0 102 68 163t169 61q93 0 154.5 -53.5t61.5 -141.5
q-1 -51 -27.5 -92t-68.5 -63q54 -22 85 -67.5t31 -105.5q0 -93 -65 -151t-167 -58z" />
    <glyph glyph-name="four.tnum" horiz-adv-x="590" 
d="M391 0v193h-378v69l389 448h75v-436h98v-81h-98v-193h-86zM125 274h266v306z" />
    <glyph glyph-name="five.tnum" horiz-adv-x="590" 
d="M291 -10q-96 0 -166 60t-72 142h88q12 -52 53 -85t97 -33q65 0 109 44t44 108q0 65 -42 109t-107 44q-89 0 -134 -72l-82 24l73 379h332v-84h-263l-39 -203q52 37 124 37q99 0 162.5 -69.5t63.5 -175.5q0 -94 -69 -159.5t-172 -65.5z" />
    <glyph glyph-name="six.tnum" horiz-adv-x="590" 
d="M292 -10q-103 0 -172 68t-69 166q0 52 20.5 93.5t59.5 87.5l259 305h109l-217 -257q18 2 28 2q89 0 155.5 -68t66.5 -161q0 -99 -68.5 -167.5t-171.5 -68.5zM292 73q64 0 108 45t44 108t-44 108t-108 45q-65 0 -109 -44.5t-44 -108.5t44 -108.5t109 -44.5z" />
    <glyph glyph-name="seven.tnum" horiz-adv-x="590" 
d="M194 0h-96l331 626h-363v84h466v-72z" />
    <glyph glyph-name="eight.tnum" horiz-adv-x="590" 
d="M295 -10q-104 0 -171.5 63t-67.5 160q0 130 112 185q-73 52 -73 141q0 80 56.5 131.5t143.5 51.5q88 0 143.5 -51.5t55.5 -131.5q0 -90 -72 -141q111 -55 111 -185q0 -97 -66.5 -160t-171.5 -63zM295 72q70 0 110.5 40t40.5 101q0 62 -40.5 102t-110.5 40
q-68 0 -110 -40.5t-42 -101.5q0 -60 42 -100.5t110 -40.5zM295 432q52 0 83 30.5t31 74.5q0 46 -30.5 75t-83.5 29q-51 0 -83 -29.5t-32 -74.5q0 -43 32 -74t83 -31z" />
    <glyph glyph-name="nine.tnum" horiz-adv-x="590" 
d="M89 0l219 258q-11 -1 -28 -1q-89 0 -155.5 68t-66.5 160q0 100 68.5 168.5t171.5 68.5t172 -68t69 -166q0 -52 -20.5 -93.5t-59.5 -87.5l-260 -307h-110zM298 333q65 0 109 44.5t44 108.5t-44 108.5t-109 44.5t-108.5 -44.5t-43.5 -108.5t43.5 -108.5t108.5 -44.5z" />
    <glyph glyph-name="zero.tnum" horiz-adv-x="590" 
d="M296 -10q-111 0 -181 74.5t-70 192.5v198q0 118 70.5 192.5t180.5 74.5t181 -75t71 -192v-198q0 -118 -71 -192.5t-181 -74.5zM296 74q74 0 120 49t46 134v198q0 85 -46 134t-120 49q-73 0 -119 -49t-46 -134v-198q0 -85 46 -134t119 -49z" />
    <glyph glyph-name="zero.tnum_zero" horiz-adv-x="590" 
d="M295 -10q-111 0 -181 74.5t-70 192.5v198q0 118 70.5 192.5t180.5 74.5t181 -75t71 -192v-198q0 -118 -71 -192.5t-181 -74.5zM295 74q74 0 120 49t46 134v164l-327 -212q13 -65 55.5 -100t105.5 -35zM130 455v-164l326 212q-12 63 -55 99t-106 36q-73 0 -119 -49
t-46 -134z" />
    <glyph glyph-name="uni2070.zero" horiz-adv-x="390" 
d="M196 404q-69 0 -113.5 47t-44.5 119v112q0 74 44 120.5t114 46.5q69 0 113 -47t44 -120v-112q0 -72 -44 -119t-113 -47zM196 472q39 0 63 26.5t24 71.5v80l-174 -106q7 -35 30 -53.5t57 -18.5zM107 682v-79l173 107q-8 33 -30.5 51.5t-53.5 18.5q-40 0 -64.5 -26
t-24.5 -72z" />
    <glyph glyph-name="uni2080.zero" horiz-adv-x="389" 
d="M195 -121q-69 0 -113.5 47t-44.5 119v112q0 74 44 120.5t114 46.5q69 0 113 -47t44 -120v-112q0 -72 -44 -119t-113 -47zM195 -53q39 0 63 26.5t24 71.5v80l-174 -106q7 -34 30.5 -53t56.5 -19zM106 157v-79l173 107q-8 33 -30.5 51.5t-53.5 18.5q-40 0 -64.5 -26
t-24.5 -72z" />
    <glyph glyph-name="one.numr" horiz-adv-x="229" 
d="M98 278v363h-87l52 69h105v-432h-70z" />
    <glyph glyph-name="two.numr" horiz-adv-x="353" 
d="M319 346v-68h-287v25q0 17 4 33.5t8.5 28.5t16 26t17.5 22t22.5 21t22.5 17.5t26 18t24 16.5q38 28 55 49t17 50q0 28 -18.5 45.5t-48.5 17.5q-33 0 -54 -19.5t-21 -51.5h-71q0 62 42 101t105 39q57 0 96.5 -34t39.5 -96q0 -49 -22 -82t-72 -70q-6 -4 -28 -19
t-31.5 -22.5t-21.5 -21t-16 -26.5h195z" />
    <glyph glyph-name="three.numr" horiz-adv-x="365" 
d="M186 272q-65 0 -111 39t-46 103h69q3 -35 27.5 -54.5t61.5 -19.5q33 0 53.5 17t20.5 47q0 32 -22 49.5t-59 17.5h-34v60h34q32 0 50 16t19 43q1 26 -18 42t-47 16q-33 0 -55 -19.5t-22 -51.5h-70q0 64 43 102t104 38q62 0 99 -34t37 -89q-1 -62 -52 -93q64 -28 64 -101
q0 -57 -40.5 -92.5t-105.5 -35.5z" />
    <glyph glyph-name="four.numr" horiz-adv-x="390" 
d="M240 278v107h-221v56l228 269h63v-261h58v-64h-58v-107h-70zM105 449h135v157z" />
    <glyph glyph-name="five.numr" horiz-adv-x="348" 
d="M175 272q-60 0 -104.5 36.5t-46.5 90.5h71q7 -26 28.5 -42.5t52.5 -16.5q33 0 54.5 22.5t21.5 55.5t-21.5 55.5t-54.5 22.5q-53 0 -74 -44l-63 19l45 239h208v-68h-152l-20 -99q25 17 67 17q60 0 97.5 -40.5t37.5 -102.5q0 -65 -40.5 -105t-106.5 -40z" />
    <glyph glyph-name="six.numr" horiz-adv-x="343" 
d="M169 272q-65 0 -107 42t-42 102q0 32 11.5 56t38.5 58l141 180h87l-120 -153h5q53 0 94 -39.5t41 -99.5q0 -62 -42 -104t-107 -42zM169 339q33 0 55.5 22.5t22.5 55.5t-22.5 56t-55.5 23t-55.5 -23t-22.5 -56t22.5 -55.5t55.5 -22.5z" />
    <glyph glyph-name="seven.numr" horiz-adv-x="334" 
d="M118 278h-79l198 364h-210v68h293v-60z" />
    <glyph glyph-name="eight.numr" horiz-adv-x="361" 
d="M180 272q-64 0 -106.5 38.5t-42.5 97.5q0 73 61 109q-40 31 -40 86q0 49 36 81.5t92 32.5q57 0 92.5 -32.5t35.5 -81.5q0 -55 -40 -86q62 -37 62 -109q0 -60 -42 -98t-108 -38zM180 336q37 0 57.5 21.5t20.5 52.5t-21 52.5t-56 21.5q-36 0 -57.5 -21.5t-21.5 -52.5
q0 -30 21.5 -52t56.5 -22zM180 542q28 0 45 16t17 40t-17.5 40t-44.5 16q-26 0 -43 -16t-17 -40t17 -40t43 -16z" />
    <glyph glyph-name="nine.numr" horiz-adv-x="343" 
d="M44 278l120 154h-4q-53 0 -94 39.5t-41 99.5q0 63 41 104.5t107 41.5t108 -42t42 -102q0 -33 -12 -57.5t-38 -57.5l-142 -180h-87zM173 492q35 0 57 23t22 56q0 34 -22 56.5t-57 22.5q-33 0 -55 -23t-22 -56t22 -56t55 -23z" />
    <glyph glyph-name="zero.numr" horiz-adv-x="390" 
d="M196 272q-69 0 -113.5 47t-44.5 119v112q0 74 44 120.5t114 46.5q69 0 113 -47t44 -120v-112q0 -72 -44 -119t-113 -47zM196 340q39 0 63 26.5t24 71.5v112q0 46 -24 72t-63 26q-40 0 -64.5 -26t-24.5 -72v-112q0 -45 24.5 -71.5t64.5 -26.5z" />
    <glyph glyph-name="zero.numr_zero" horiz-adv-x="390" 
d="M196 272q-69 0 -113.5 47t-44.5 119v112q0 74 44 120.5t114 46.5q69 0 113 -47t44 -120v-112q0 -72 -44 -119t-113 -47zM196 340q39 0 63 26.5t24 71.5v80l-174 -106q7 -35 30 -53.5t57 -18.5zM107 550v-79l173 107q-8 33 -30.5 51.5t-53.5 18.5q-40 0 -64.5 -26
t-24.5 -72z" />
    <glyph glyph-name="one.dnom" horiz-adv-x="229" 
d="M99 1v363h-87l52 69h105v-432h-70z" />
    <glyph glyph-name="two.dnom" horiz-adv-x="353" 
d="M319 69v-68h-287v25q0 17 4 33.5t8.5 28.5t16 26t17.5 22t22.5 21t22.5 17.5t26 18t24 16.5q38 28 55 49t17 50q0 28 -18.5 45.5t-48.5 17.5q-33 0 -54 -19.5t-21 -51.5h-71q0 62 42 101t105 39q57 0 96.5 -34t39.5 -96q0 -49 -22 -82t-72 -70q-6 -4 -28 -19t-31.5 -22.5
t-21.5 -21t-16 -26.5h195z" />
    <glyph glyph-name="three.dnom" horiz-adv-x="365" 
d="M186 -5q-65 0 -111 39t-46 103h69q3 -35 27.5 -54.5t61.5 -19.5q33 0 53.5 17t20.5 47q0 32 -22 49.5t-59 17.5h-34v60h34q32 0 50 16t19 43q1 26 -18 42t-47 16q-33 0 -55 -19.5t-22 -51.5h-70q0 64 43 102t104 38q62 0 99 -34t37 -89q-1 -62 -52 -93q64 -28 64 -101
q0 -57 -40.5 -92.5t-105.5 -35.5z" />
    <glyph glyph-name="four.dnom" horiz-adv-x="390" 
d="M240 1v107h-221v56l228 269h63v-261h58v-64h-58v-107h-70zM105 172h135v157z" />
    <glyph glyph-name="five.dnom" horiz-adv-x="348" 
d="M175 -5q-60 0 -104.5 36.5t-46.5 90.5h71q7 -26 28.5 -42.5t52.5 -16.5q33 0 54.5 22.5t21.5 55.5t-21.5 55.5t-54.5 22.5q-53 0 -74 -44l-63 19l45 239h208v-68h-152l-20 -99q25 17 67 17q60 0 97.5 -40.5t37.5 -102.5q0 -65 -40.5 -105t-106.5 -40z" />
    <glyph glyph-name="six.dnom" horiz-adv-x="343" 
d="M169 -5q-65 0 -107 42t-42 102q0 32 11.5 56t38.5 58l141 180h87l-120 -153h5q53 0 94 -39.5t41 -99.5q0 -62 -42 -104t-107 -42zM169 62q33 0 55.5 22.5t22.5 55.5t-22.5 56t-55.5 23t-55.5 -23t-22.5 -56t22.5 -55.5t55.5 -22.5z" />
    <glyph glyph-name="seven.dnom" horiz-adv-x="334" 
d="M119 1h-79l198 364h-210v68h293v-60z" />
    <glyph glyph-name="eight.dnom" horiz-adv-x="361" 
d="M180 -5q-64 0 -106.5 38.5t-42.5 97.5q0 73 61 109q-40 31 -40 86q0 49 36 81.5t92 32.5q57 0 92.5 -32.5t35.5 -81.5q0 -55 -40 -86q62 -37 62 -109q0 -60 -42 -98t-108 -38zM180 59q37 0 57.5 21.5t20.5 52.5t-21 52.5t-56 21.5q-36 0 -57.5 -21.5t-21.5 -52.5
q0 -30 21.5 -52t56.5 -22zM180 265q28 0 45 16t17 40t-17.5 40t-44.5 16q-26 0 -43 -16t-17 -40t17 -40t43 -16z" />
    <glyph glyph-name="nine.dnom" horiz-adv-x="343" 
d="M44 1l120 154h-4q-53 0 -94 39.5t-41 99.5q0 63 41 104.5t107 41.5t108 -42t42 -102q0 -33 -12 -57.5t-38 -57.5l-142 -180h-87zM173 215q35 0 57 23t22 56q0 34 -22 56.5t-57 22.5q-33 0 -55 -23t-22 -56t22 -56t55 -23z" />
    <glyph glyph-name="zero.dnom" horiz-adv-x="390" 
d="M196 -5q-69 0 -113.5 47t-44.5 119v112q0 74 44 120.5t114 46.5q69 0 113 -47t44 -120v-112q0 -72 -44 -119t-113 -47zM196 63q39 0 63 26.5t24 71.5v112q0 46 -24 72t-63 26q-40 0 -64.5 -26t-24.5 -72v-112q0 -45 24.5 -71.5t64.5 -26.5z" />
    <glyph glyph-name="zero.dnom_zero" horiz-adv-x="391" 
d="M196 -6q-69 0 -113.5 47t-44.5 119v112q0 74 44 120.5t114 46.5q69 0 113 -47t44 -120v-112q0 -72 -44 -119t-113 -47zM196 62q39 0 63 26.5t24 71.5v80l-174 -106q7 -35 30 -53.5t57 -18.5zM107 272v-79l173 107q-8 33 -30.5 51.5t-53.5 18.5q-40 0 -64.5 -26t-24.5 -72
z" />
    <glyph glyph-name="hyphen.case" horiz-adv-x="392" 
d="M68 312v86h255v-86h-255z" />
    <glyph glyph-name="uni00AD.case" horiz-adv-x="392" 
d="M68 312v86h255v-86h-255z" />
    <glyph glyph-name="endash.case" horiz-adv-x="571" 
d="M68 312v86h434v-86h-434z" />
    <glyph glyph-name="emdash.case" horiz-adv-x="641" 
d="M68 312v86h505v-86h-505z" />
    <glyph glyph-name="questiondown.case" horiz-adv-x="506" 
d="M316 474v-20q0 -64 -91 -130q-49 -35 -71 -62.5t-22 -67.5q0 -52 33.5 -87t86.5 -35q60 0 98 36.5t38 96.5h86q0 -91 -63.5 -154t-158.5 -63q-91 0 -148.5 60t-57.5 144q0 60 29 102t76 78q4 3 15.5 12t16.5 13t14.5 12t13.5 13.5t9.5 13t7.5 15t2 15.5v8h86zM274 572
q-31 0 -52.5 22t-21.5 53q0 30 22 52.5t52 22.5t52 -22.5t22 -52.5q0 -31 -21.5 -53t-52.5 -22z" />
    <glyph glyph-name="exclamdown.case" horiz-adv-x="278" 
d="M166 474l16 -189v-285h-86v285l16 189h54zM139 572q-31 0 -52.5 22t-21.5 53q0 30 22 52.5t52 22.5t52 -22.5t22 -52.5q0 -31 -21.5 -53t-52.5 -22z" />
    <glyph glyph-name="guilsinglleft.case" horiz-adv-x="333" 
d="M51 355l141 217h73l-116 -217l116 -217h-73z" />
    <glyph glyph-name="guilsinglright.case" horiz-adv-x="333" 
d="M141 572l141 -217l-141 -217h-73l116 217l-116 217h73z" />
    <glyph glyph-name="guillemotleft.case" horiz-adv-x="506" 
d="M224 355l141 217h73l-116 -217l116 -217h-73zM51 355l141 217h73l-116 -217l116 -217h-73z" />
    <glyph glyph-name="guillemotright.case" horiz-adv-x="506" 
d="M-32 572l141 -217l-141 -217h-73l116 217l-116 217h73zM141 572l141 -217l-141 -217h-73l116 217l-116 217h73z" />
    <glyph glyph-name="parenleft.case" horiz-adv-x="277" 
d="M248 -126h-70q-128 233 -128 480t128 480h70q-121 -235 -121 -480t121 -480z" />
    <glyph glyph-name="parenright.case" horiz-adv-x="277" 
d="M99 -126h-70q121 235 121 480t-121 480h70q128 -233 128 -480t-128 -480z" />
    <glyph glyph-name="bracketleft.case" horiz-adv-x="314" 
d="M95 -125v960h187v-72h-109v-816h109v-72h-187z" />
    <glyph glyph-name="bracketright.case" horiz-adv-x="313" 
d="M218 835v-960h-187v72h109v816h-109v72h187z" />
    <glyph glyph-name="braceleft.case" horiz-adv-x="323" 
d="M292 -125h-60q-69 0 -98 35t-29 108v230q0 37 -11.5 54t-46.5 17h-15v72h15q35 0 46.5 16t11.5 54v231q0 73 28.5 108t97.5 35h61v-72h-48q-37 0 -49 -16.5t-12 -56.5v-225q0 -48 -11.5 -72t-42.5 -38q30 -14 42 -38.5t12 -72.5v-224q0 -41 12 -57t49 -16h48v-72z" />
    <glyph glyph-name="braceright.case" horiz-adv-x="323" 
d="M91 -125h-60v72h48q37 0 49 16t12 57v224q0 48 12 72.5t42 38.5q-31 14 -42.5 38t-11.5 72v225q0 40 -12 56.5t-49 16.5h-48v72h61q69 0 97.5 -35t28.5 -108v-231q0 -38 11.5 -54t46.5 -16h15v-72h-15q-35 0 -46.5 -17t-11.5 -54v-230q0 -73 -29 -108t-98 -35z" />
    <glyph glyph-name="bar.case" horiz-adv-x="267" 
d="M94 -55v820h79v-820h-79z" />
    <glyph glyph-name="brokenbar.case" horiz-adv-x="267" 
d="M94 -55v362h79v-362h-79zM94 403v362h79v-362h-79z" />
    <glyph glyph-name="periodcentered.case" horiz-adv-x="279" 
d="M140 280q-31 0 -52.5 22t-21.5 53q0 30 22 52.5t52 22.5t52 -22.5t22 -52.5q0 -31 -21.5 -53t-52.5 -22z" />
    <glyph glyph-name="plus.case" horiz-adv-x="500" 
d="M38 316v77h173v172h78v-172h172v-77h-172v-172h-78v172h-173z" />
    <glyph glyph-name="minus.case" horiz-adv-x="560" 
d="M69 316v77h423v-77h-423z" />
    <glyph glyph-name="multiply.case" horiz-adv-x="503" 
d="M109 159l-56 55l143 141l-143 140l56 56l143 -140l142 140l56 -56l-143 -140l143 -141l-56 -55l-142 140z" />
    <glyph glyph-name="equal.case" horiz-adv-x="560" 
d="M68 208v76h424v-76h-424zM68 425v77h424v-77h-424z" />
    <glyph glyph-name="less.case" horiz-adv-x="446" 
d="M400 608l-253 -253l253 -253h-109l-253 253l253 253h109z" />
    <glyph glyph-name="greater.case" horiz-adv-x="446" 
d="M299 355l-253 253h109l253 -253l-253 -253h-109z" />
    <glyph glyph-name="acute.case" 
d="M-93 770l78 157h108l-114 -157h-72z" />
    <glyph glyph-name="breve.case" 
d="M0 759q-68 0 -113.5 43.5t-45.5 114.5h58q0 -47 28.5 -74t72.5 -27t72.5 27t28.5 74h58q0 -71 -45.5 -114.5t-113.5 -43.5z" />
    <glyph glyph-name="caron.case" 
d="M0 768l-166 87v77l166 -87l166 87v-77z" />
    <glyph glyph-name="cedilla.case" 
d="M-107 -204v55q30 -17 76 -17q29 0 48.5 10t19.5 31q0 30 -46 30q-24 0 -45 -10l-32 21l52 87h55l-34 -56q15 7 40 7q36 0 58 -20.5t22 -55.5q0 -43 -37 -70t-92 -27q-53 0 -85 15z" />
    <glyph glyph-name="circumflex.case" 
d="M-166 768v77l166 87l166 -87v-77l-166 87z" />
    <glyph glyph-name="dieresis.case" 
d="M-112 785q-25 0 -42 17t-17 41t17 41.5t42 17.5q24 0 41 -17.5t17 -41.5t-17 -41t-41 -17zM113 785q-24 0 -41.5 17t-17.5 41t17.5 41.5t41.5 17.5t41 -17.5t17 -41.5t-17 -41t-41 -17z" />
    <glyph glyph-name="dotaccent.case" 
d="M0 785q-25 0 -42 17t-17 41t17 41.5t42 17.5q24 0 41 -17.5t17 -41.5t-17 -41t-41 -17z" />
    <glyph glyph-name="_671" 
d="M0 -58q-25 0 -42 17t-17 41t17 41.5t42 17.5q24 0 41 -17.5t17 -41.5t-17 -41t-41 -17z" />
    <glyph glyph-name="_672" 
d="M0 -190q-25 0 -42 17t-17 41t17 41.5t42 17.5q24 0 41 -17.5t17 -41.5t-17 -41t-41 -17z" />
    <glyph glyph-name="_673" 
d="M-62 -269l36 85q-32 19 -32 52q0 24 17 41.5t41 17.5t41 -17.5t17 -41.5q0 -18 -11 -35l-64 -102h-45z" />
    <glyph glyph-name="grave.case" 
d="M93 770h-72l-114 157h108z" />
    <glyph glyph-name="hungarumlaut.case" 
d="M-1 770l69 157h99l-109 -157h-59zM-168 770l69 157h99l-109 -157h-59z" />
    <glyph glyph-name="macron.case" 
d="M-161 805v69h322v-69h-322z" />
    <glyph glyph-name="ogonek.case" 
d="M7 -219q-40 0 -67.5 25t-27.5 64q0 28 14.5 54.5t29.5 41.5t39 34h93q-92 -57 -92 -112q0 -33 36 -33q29 0 56 22v-70q-29 -26 -81 -26z" />
    <glyph glyph-name="ring.case" 
d="M0 753q-50 0 -85.5 35t-35.5 85t35.5 85t85.5 35t86 -35.5t36 -84.5t-36 -84.5t-86 -35.5zM0 804q29 0 50 20t21 49t-21 49.5t-50 20.5t-49 -20.5t-20 -49.5t20 -49t49 -20z" />
    <glyph glyph-name="tilde.case" 
d="M-173 786l3 18q8 43 37 69t69 26q28 0 71.5 -22t57.5 -22q32 0 43 44h66l-4 -19q-8 -43 -36.5 -68.5t-69.5 -25.5q-29 0 -72 22t-56 22q-32 0 -44 -44h-65z" />
    <glyph glyph-name="_680" 
d="M-163 319v82h326v-82h-326z" />
    <glyph glyph-name="_681" 
d="M339 679l-622 -699l-56 52l623 698z" />
    <glyph glyph-name="_682" 
d="M162 423l-325 -210v84l325 210v-84z" />
    <glyph glyph-name="_683" 
d="M-202 338v81h405v-81h-405z" />
    <glyph glyph-name="_684" 
d="M-361 533v72h721v-72h-721z" />
    <glyph glyph-name="uni0449.locl" horiz-adv-x="916" 
d="M717 252v248h86v-383q0 -38 37 -38h40v-205h-81v126h-4q-71 0 -71 66v22q-22 -45 -62.5 -71.5t-94.5 -26.5q-112 0 -155 106q-20 -49 -64 -77.5t-100 -28.5q-81 0 -127.5 55t-46.5 148v307h86v-294q0 -63 25 -100t74 -37q60 0 97 46.5t39 127.5v257h86v-294
q0 -62 25.5 -99.5t73.5 -37.5q61 0 99 49.5t38 133.5z" />
    <glyph glyph-name="uni0437.locl" horiz-adv-x="481" 
d="M1 -104l68 53q19 -34 58.5 -61.5t90.5 -27.5q62 0 98 39t36 95q0 57 -33.5 95.5t-99.5 38.5h-77v77h75q54 0 83.5 34t29.5 85q0 48 -29.5 77.5t-82.5 29.5q-78 0 -134 -75l-60 52q29 43 81 72.5t121 29.5q86 0 138 -51.5t52 -126.5q0 -111 -82 -160q106 -52 106 -182
q0 -91 -59.5 -150t-157.5 -59q-145 0 -222 115z" />
    <glyph glyph-name="uni0446.locl" horiz-adv-x="620" 
d="M422 252v248h86v-383q0 -38 36 -38h41v-205h-81v126h-5q-31 0 -51 16t-20 50v20q-50 -96 -165 -96q-85 0 -137 55t-52 147v308h86v-295q0 -63 32 -99.5t85 -36.5q64 0 104.5 48.5t40.5 134.5z" />
    <glyph glyph-name="uni043F.locl" horiz-adv-x="589" 
d="M81 0v500h86v-77q51 87 159 87q85 0 137 -55t52 -147v-308h-85v295q0 63 -32 99.5t-86 36.5q-62 0 -103.5 -49t-41.5 -134v-248h-86z" />
    <glyph glyph-name="uni044C.locl" horiz-adv-x="490" 
d="M273 -10h-12q-93 0 -139.5 46.5t-46.5 118.5v345h86v-180h112q93 0 139.5 -48t46.5 -117t-46.5 -117t-139.5 -48zM267 67q107 0 107 88q0 87 -105 87h-108v-86q0 -89 106 -89z" />
    <glyph glyph-name="uni0432.locl" horiz-adv-x="550" 
d="M295 -10h-15q-97 0 -152 56t-55 158v352q0 96 48.5 149.5t147.5 53.5t148.5 -55t49.5 -137q0 -117 -75 -162q55 -25 85 -75.5t30 -117.5q0 -102 -57.5 -162t-154.5 -60zM278 68h22q58 0 89 40t31 108q0 63 -36 105t-100 42h-125v-156q0 -139 119 -139zM159 568v-128h105
q117 0 117 121q0 119 -112 119q-110 0 -110 -112z" />
    <glyph glyph-name="uni041B.locl" horiz-adv-x="718" 
d="M6 0l314 710h77l315 -710h-97l-258 581l-255 -581h-96z" />
    <glyph glyph-name="uni0448.locl" horiz-adv-x="885" 
d="M160 500v-294q0 -63 25 -100t74 -37q61 0 98.5 49.5t37.5 133.5v248h86v-294q0 -62 25.5 -99.5t73.5 -37.5q61 0 99 49.5t38 133.5v248h86v-500h-86v77q-21 -40 -60.5 -63.5t-89.5 -23.5q-112 0 -155 106q-20 -49 -64 -77.5t-100 -28.5q-81 0 -127.5 55t-46.5 148v307h86
z" />
    <glyph glyph-name="uni0442.locl" horiz-adv-x="885" 
d="M725 0v294q0 62 -25.5 99.5t-73.5 37.5q-60 0 -97.5 -47t-39.5 -128v-256h-86v294q0 63 -25.5 100t-72.5 37q-62 0 -100 -49.5t-38 -133.5v-248h-86v500h86v-77q48 87 151 87q114 0 154 -107q20 49 64 78t100 29q81 0 128 -55t47 -148v-307h-86z" />
    <glyph glyph-name="uni0434.locl" horiz-adv-x="628" 
d="M299 81q75 0 122 49.5t47 125.5t-47.5 125.5t-121.5 49.5t-121.5 -49.5t-47.5 -125.5t47 -125.5t122 -49.5zM294 -219q-77 0 -139 28.5t-96 73.5l60 60q66 -84 175 -84q70 0 118.5 44t48.5 129v57q-27 -40 -73 -64t-101 -24q-105 0 -175 73.5t-70 181.5q0 107 70.5 180.5
t174.5 73.5q55 0 101 -24t73 -63v77h86v-471q0 -121 -70.5 -184.5t-182.5 -63.5z" />
    <glyph glyph-name="uni0433.locl" horiz-adv-x="443" 
d="M214 -10q-76 0 -124.5 40t-48.5 110q0 56 34 91t102 56l54 17q40 12 55.5 29.5t15.5 42.5q0 27 -25 43.5t-57 16.5q-67 0 -104 -57l-65 44q51 87 165 87q74 0 123 -37.5t49 -99.5q0 -110 -124 -146l-50 -16q-49 -15 -68.5 -32.5t-19.5 -45.5q0 -31 25 -49t62 -18
q43 0 78.5 21t49.5 58l70 -39q-23 -58 -74.5 -87t-122.5 -29z" />
    <glyph glyph-name="uni0438.locl" horiz-adv-x="579" 
d="M258 -10q-82 0 -133 55.5t-51 147.5v307h86v-294q0 -63 30.5 -100t82.5 -37q60 0 99.5 49.5t39.5 133.5v248h86v-500h-86v77q-49 -87 -154 -87z" />
    <glyph glyph-name="uni0414.locl" horiz-adv-x="726" 
d="M18 -148v236h66l239 622h78l241 -622h65v-236h-87v148h-514v-148h-88zM361 568l-183 -480h367z" />
    <glyph glyph-name="uni043A.locl" horiz-adv-x="524" 
d="M417 0l-250 223v-223h-86v750h86v-472l222 222h109l-245 -245l282 -255h-118z" />
    <glyph glyph-name="uni0439.locl" horiz-adv-x="579" 
d="M258 -10q-82 0 -133 55.5t-51 147.5v307h86v-294q0 -63 30.5 -100t82.5 -37q60 0 99.5 49.5t39.5 133.5v248h86v-500h-86v77q-49 -87 -154 -87zM286 578q-68 0 -113.5 44t-45.5 115v13h68v-13q0 -48 25.5 -74.5t65.5 -26.5t65.5 26.5t25.5 74.5v13h68v-13
q0 -71 -45.5 -115t-113.5 -44z" />
    <glyph glyph-name="uni0436.locl" horiz-adv-x="778" 
d="M668 0l-236 222v-222h-86v222l-236 -222h-114l268 255l-233 245h107l208 -222v472h86v-472l209 222h106l-233 -245l268 -255h-114z" />
    <glyph glyph-name="uni0431.locl" horiz-adv-x="601" 
d="M73 591q0 74 52.5 116.5t160.5 42.5h198v-77h-197q-129 0 -129 -89t129 -89h19q112 0 182.5 -71.5t70.5 -173.5q0 -109 -74 -184.5t-184 -75.5q-111 0 -184.5 75t-73.5 185q0 64 30 119t84 87q-39 18 -61.5 53t-22.5 82zM300 70q75 0 123 50.5t48 128.5q0 73 -48 121
t-123 48q-77 0 -123.5 -48t-46.5 -121q0 -78 47.5 -128.5t122.5 -50.5z" />
    <glyph glyph-name="uni044E.locl" horiz-adv-x="804" 
d="M511 -10q-99 0 -167.5 64t-80.5 162h-96v-216h-86v750h86v-457h97q15 95 82.5 156t164.5 61q109 0 180 -75t71 -185t-71 -185t-180 -75zM511 71q71 0 117 51.5t46 127.5t-46 127.5t-117 51.5t-116.5 -51t-45.5 -128q0 -76 45.5 -127.5t116.5 -51.5z" />
    <glyph glyph-name="uni043B.locl" horiz-adv-x="546" 
d="M6 0l231 500h72l231 -500h-96l-171 378l-171 -378h-96z" />
    <glyph glyph-name="uni044A.locl" horiz-adv-x="572" 
d="M355 -10h-12q-93 0 -139.5 46.5t-46.5 118.5v266h-140v79h226v-180h112q93 0 139.5 -48t46.5 -117t-46.5 -117t-139.5 -48zM456 155q0 87 -105 87h-108v-86q0 -89 106 -89q107 0 107 88z" />
    </font>
</defs>
</svg>
